.
Авторизация | Регистрация
bitok.xyz
Торрент скачать бесплатно Фильмы торрент скачать Аладдин и смертельная лампа / Aladdin and the Death Lamp (2012) HDTVRip [H.264 / 1080p-LQ] [MVO] [PR] торрент скачать бесплатно


    Аладдин и смертельная лампа / Aladdin and the Death Lamp (2012) HDTVRip [H.264 / 1080p-LQ] [MVO] [PR] торрент скачать бесплатно

    Дата: 27-01-2020, 05:00 | .torrent скачали: 1

    Аладдин и смертельная лампа / Aladdin and the Death Lamp (2012) HDTVRip [H.264 / 1080p-LQ] [MVO] [PR]Производство: США, Канада/Chesler/Perlmutter Productions, Sony Pictures Television, Vesuvius Productions
    Жанр: ужасы, фэнтези, приключения
    Режиссер: Марио Аццопарди

    Актеры
    Даррен Шалави, Ноам Дженкинс, Кэндис МакКлюр, Юджин Кларк, Суреш Джон, Джордж Гали, Али Ризви, Миф, Тиг Фонг, Ник Алачиотис

    Описание

    В поисках сокровищ Аладдин и его друг Лука расхищают неизвестную гробницу. Столкнувшись в гробнице с чудовищным испытанием, они заполучают карту, которая приведет их к волшебной лампе…

    Возраст: 16+ (зрителям, достигшим 16 лет)
    Релиз от: w4f
    Продолжительность: 01: 26: 07
    Качество видео: HDTVRip
    Перевод: Многоголосый профессиональный, Одноголосый любительский
    Субтитры: русские, английские
    Видео: AVC/H.264, 1916x1078, ~14, 2 Mbps
    Аудио 1: AC3, 6 ch, 384 Kbps (английский)
    Аудио 2: AC3, 2 ch, 192 Kbps (русский, многоголосый - ТВ3)
    Аудио 3: AC3, 2 ch, 192 Kbps (русский, одноголосый - Barin101)
    Общее
    Уникальный идентификатор : 233294448350813566133166091267362574701 (0xAF82E05B584EA4859D4600DA5924D16D)
    Полное имя : M: ФильмыИностранныеАладдин и смертельная лампа (Aladdin and the Death Lamp).mkv
    Формат : Matroska
    Версия формата : Version 4
    Размер файла : 8, 95 Гбайт
    Продолжительность : 1 ч. 26 м.
    Общий поток : 14, 9 Мбит/сек
    Название фильма : Аладдин и смертельная лампа/Аладдин и лампа смерти/Aladdin and the Death Lamp
    Кодирование произвёл : w4f
    Дата выпуска : 2012
    Дата кодирования : UTC 2020-01-18 13: 57: 52
    Программа кодирования : mkvmerge v34.0.0 (\'Sight and Seen\') 64-bit
    Библиотека кодирования : libebml v1.3.7 + libmatroska v1.5.0
    Обложка : Yes
    Attachments : cover.jpg
    Released by : Buba5473 for NNM-Club
    Видео
    Идентификатор : 1
    Формат : AVC
    Формат/Информация : Advanced Video Codec
    Профиль формата : High@L4.1
    Настройки формата : CABAC/4 Ref Frames
    Параметр CABAC формата : Да
    Параметр ReFrames формата : 4 кадра
    Идентификатор кодека : V_MPEG4/ISO/AVC
    Продолжительность : 1 ч. 25 м.
    Битрейт : 14, 2 Мбит/сек
    Ширина : 1916 пикселей
    Высота : 1078 пикселей
    Соотношение сторон : 16: 9
    Соотношение сторон в оригинале : 16: 9
    Режим частоты кадров : Переменный
    Частота кадров : 23, 946 кадра/сек
    Частота кадров в оригинале : 23, 976 (24000/1001) кадра/сек
    Цветовое пространство : YUV
    Субдискретизация насыщенности : 4: 2: 0
    Битовая глубина : 8 бит
    Тип развёртки : Прогрессивная
    Бит/(Пиксели*Кадры) : 0.287
    Размер потока : 8, 49 Гбайт (95%)
    Заголовок : aladdin.and.the.death.lamp.2012.1080p.hdtv.x264-w4f
    Библиотека кодирования : x264 core 148 r2721 72d53ab
    Настройки программы : cabac=1/ref=4/deblock=1: 0: 0/analyse=0x3: 0x113/me=hex/subme=8/psy=1/psy_rd=1.00: 0.00/mixed_ref=1/me_range=16/chroma_me=1/trellis=2/8x8dct=1/cqm=0/deadzone=21, 11/fast_pskip=1/chroma_qp_offset=-2/threads=18/lookahead_threads=3/sliced_threads=0/nr=0/decimate=1/interlaced=0/bluray_compat=0/constrained_intra=0/bframes=3/b_pyramid=2/b_adapt=1/b_bias=0/direct=3/weightb=1/open_gop=0/weightp=2/keyint=250/keyint_min=23/scenecut=40/intra_refresh=0/rc_lookahead=50/rc=crf/mbtree=1/crf=17.0/qcomp=0.60/qpmin=0/qpmax=69/qpstep=4/ip_ratio=1.40/aq=1: 1.00
    Default : Да
    Forced : Нет
    Аудио #1
    Идентификатор : 2
    Формат : AC-3
    Формат/Информация : Audio Coding 3
    Коммерческое название : Dolby Digital
    Идентификатор кодека : A_AC3
    Продолжительность : 1 ч. 25 м.
    Вид битрейта : Постоянный
    Битрейт : 384 Кбит/сек
    Каналы : 6 каналов
    Channel layout : L R C LFE Ls Rs
    Частота : 48, 0 КГц
    Частота кадров : 31, 250 кадров/сек (1536 SPF)
    Битовая глубина : 16 бит
    Метод сжатия : С потерями
    Размер потока : 235 Мбайт (3%)
    Язык : English
    Service kind : Complete Main
    Default : Нет
    Forced : Нет
    Аудио #2
    Идентификатор : 4
    Формат : AC-3
    Формат/Информация : Audio Coding 3
    Коммерческое название : Dolby Digital
    Идентификатор кодека : A_AC3
    Продолжительность : 1 ч. 26 м.
    Вид битрейта : Постоянный
    Битрейт : 192 Кбит/сек
    Каналы : 2 канала
    Channel layout : L R
    Частота : 48, 0 КГц
    Частота кадров : 31, 250 кадров/сек (1536 SPF)
    Битовая глубина : 16 бит
    Метод сжатия : С потерями
    Задержка видео : 30 мс.
    Размер потока : 118 Мбайт (1%)
    Заголовок : Перевод: Профессиональный (многоголосый закадровый) ТВ3
    Язык : Russian
    Service kind : Complete Main
    Default : Да
    Forced : Нет
    Аудио #3
    Идентификатор : 5
    Формат : AC-3
    Формат/Информация : Audio Coding 3
    Коммерческое название : Dolby Digital
    Идентификатор кодека : A_AC3
    Продолжительность : 1 ч. 26 м.
    Вид битрейта : Постоянный
    Битрейт : 192 Кбит/сек
    Каналы : 2 канала
    Channel layout : L R
    Частота : 48, 0 КГц
    Частота кадров : 31, 250 кадров/сек (1536 SPF)
    Битовая глубина : 16 бит
    Метод сжатия : С потерями
    Задержка видео : 30 мс.
    Размер потока : 118 Мбайт (1%)
    Заголовок : Перевод: Одноголосый закадровый - Barin101
    Язык : Russian
    Service kind : Complete Main
    Default : Нет
    Forced : Нет
    Текст #1
    Идентификатор : 3
    Формат : UTF-8
    Идентификатор кодека : S_TEXT/UTF8
    Идентификатор кодека/Информация : UTF-8 Plain Text
    Продолжительность : 1 ч. 25 м.
    Битрейт : 68 бит/сек
    Count of elements : 1269
    Размер потока : 43, 0 Кбайт (0%)
    Язык : English
    Default : Нет
    Forced : Нет
    Текст #2
    Идентификатор : 6
    Формат : UTF-8
    Идентификатор кодека : S_TEXT/UTF8
    Идентификатор кодека/Информация : UTF-8 Plain Text
    Продолжительность : 1 ч. 25 м.
    Битрейт : 79 бит/сек
    Count of elements : 1002
    Размер потока : 49, 5 Кбайт (0%)
    Заголовок : Rus Sub
    Язык : Russian
    Default : Да
    Forced : Нет
    Меню
    00: 00: 00.000 : en: 1
    00: 05: 15.000 : en: 2
    00: 11: 13.000 : en: 3
    00: 15: 57.000 : en: 4
    00: 20: 09.000 : en: 5
    00: 23: 11.000 : en: 6
    00: 30: 59.000 : en: 7
    00: 35: 42.000 : en: 8
    00: 39: 19.000 : en: 9
    00: 44: 22.000 : en: 10
    00: 50: 23.000 : en: 11
    00: 54: 28.000 : en: 12
    00: 59: 41.000 : en: 13
    01: 08: 41.000 : en: 14
    XMP
    Xmp.video.FileName : M: ФильмыИностранныеАладдин и смертельная лампа (Aladdin and the Death Lamp).mkv
    Xmp.video.FileSize : 974.946
    Xmp.video.MimeType : video/matroska
    Xmp.video.EBMLVersion : 1
    Xmp.video.EBMLReadVersion : 1
    Xmp.video.DocType : matroska
    Xmp.video.DocTypeVersion : 4
    Xmp.video.DocTypeReadVersion : 2
    Xmp.video.TimecodeScale : 0.001
    Xmp.video.MuxingApp : libebml v1.3.7 + libmatroska v1.5.0
    Xmp.video.WritingApp : mkvmerge v34.0.0 (\'Sight and Seen\') 64-bit
    Xmp.video.Duration : 5167413
    Xmp.video.DateUTC : 601048672
    Xmp.video.Title : РђРаддин Рё смертеРьная Рампа/РђРаддин Рё Рампа смерти/Aladdin and the Death Lamp
    Xmp.video.TotalStream : 19
    Xmp.video.TrackLacing : No
    Xmp.video.Codec : V_MPEG4/ISO/AVC
    Xmp.video.FrameRate : 23.976
    Xmp.video.TrackLang : und
    Xmp.video.TrackName : Rus Sub
    Xmp.video.Width : 1916
    Xmp.video.Height : 1078
    Xmp.audio.DefaultOn : No
    Xmp.audio.Compressor : A_AC3
    Xmp.audio.DefaultDuration : 32000
    Xmp.audio.SampleRate : 48000
    Xmp.video.SubTDefaultOn : No
    Xmp.video.SubTTrackLacing : No
    Xmp.video.SubTCodec : S_TEXT/UTF8
    Xmp.audio.TrackLang : rus
    Xmp.audio.ChannelType : Stereo
    Xmp.video.SubTLang : rus
    Xmp.video.AttachFileName : cover.jpg
    Xmp.video.AttachFileMIME : image/jpeg
    Xmp.video.AttachFileUID : -5383365388232206280
    Xmp.video.AttachFileDesc : Cover
    Xmp.video.AspectRatio : 16: 9

    Скриншоты для ознакомления



    Все одноименные релизы в Клубе
    Время раздачи: с 11: 00 до 21: 00 по Новосибирску (UTC +7) (до появления первых 3-5 скачавших)

    Онлайн видео Аладдин и смертельная лампа



    Аладдин и смертельная лампа / Aladdin and the Death Lamp (2012) HDTVRip [H.264 / 1080p-LQ] [MVO] [PR] торрент скачать бесплатно
    Рейтинг →
     (голосов: 1, оценка 4/5, голосовать можно 1 раз )

    Другие торренты по теме:

  • Аладдин и смертельная лампа / Aladdin and the Death Lamp (2012) DVDRip [VO]


    • Комментарии (0):

      Информация

      Информация

        Посетители, находящиеся в группе Гости, не могут оставлять комментарии в данной новости.

        ↓ Меню




        ↓ Опрос

        Вы добавили сайт в закладки?
        Да
        Нет


        Популярное