.
Авторизация | Регистрация
bitok.xyz
Торрент скачать бесплатно Фильмы торрент скачать Pet Shop Boys - 3 Music Videos (2012-2020) WEB-DL [H.264 / 720p / 1080p-LQ] торрент скачать бесплатно


    Pet Shop Boys - 3 Music Videos (2012-2020) WEB-DL [H.264 / 720p / 1080p-LQ] торрент скачать бесплатно

    Дата: 27-01-2020, 05:00 | .torrent скачали: 1

    Pet Shop Boys - 3 Music Videos (2012-2020) WEB-DL [H.264 / 720p / 1080p-LQ]Жанр: Synthpop, Dance-Pop
    Страна исполнителя (группы) : United Kingdom (London)
    Треклист:
    2012 Pet Shop Boys - Leaving (Promotional Video)
    2020 Pet Shop Boys - Monkey business (Official video)
    2020 Pet Shop Boys (feat. Years Years) - Dreamland (Official lyric video)
    Продолжительность: 00: 11: 25
    Качество видео: WEB-DL-LQ
    Видео1: AVC/H.264, 1920x1080, ~3941 kbps
    Видео2: AVC/H.264, 1280x720, ~2717 kbps
    Аудио1: AAC, 2 ch, 512 Kbps
    Аудио2: AAC, 2 ch, 147 Kbps
    General
    Complete name : C: VIDEOPet Shop Boys2012 Pet Shop Boys - Leaving (Promotional Video) 1280 x 720.mp4
    Format : MPEG-4
    Format profile : Base Media/Version 2
    Codec ID : mp42 (mp42/mp41/isom/avc1)
    File size : 74.6 MiB
    Duration : 3 min 50 s
    Overall bit rate mode : Variable
    Overall bit rate : 2 717 kb/s
    Encoded date : UTC 2013-11-19 02: 30: 36
    Tagged date : UTC 2013-11-19 02: 30: 36
    Video
    ID : 1
    Format : AVC
    Format/Info : Advanced Video Codec
    Format profile : High@L3.1
    Format settings : CABAC/4 Ref Frames
    Format settings, CABAC : Yes
    Format settings, Reference frames : 4 frames
    Codec ID : avc1
    Codec ID/Info : Advanced Video Coding
    Duration : 3 min 50 s
    Bit rate : 2 566 kb/s
    Width : 1 280 pixels
    Height : 720 pixels
    Display aspect ratio : 16: 9
    Frame rate mode : Constant
    Frame rate : 25.000 FPS
    Color space : YUV
    Chroma subsampling : 4: 2: 0
    Bit depth : 8 bits
    Scan type : Progressive
    Bits/(Pixel*Frame) : 0.111
    Stream size : 70.5 MiB (94%)
    Writing library : x264 core 138 r2358 9e941d1
    Encoding settings : cabac=1/ref=3/deblock=1: 0: 0/analyse=0x3: 0x113/me=hex/subme=7/psy=1/psy_rd=1.00: 0.00/mixed_ref=1/me_range=16/chroma_me=1/trellis=1/8x8dct=1/cqm=0/deadzone=21, 11/fast_pskip=1/chroma_qp_offset=-2/threads=12/lookahead_threads=2/sliced_threads=0/nr=0/decimate=1/interlaced=0/bluray_compat=0/stitchable=1/constrained_intra=0/bframes=3/b_pyramid=2/b_adapt=1/b_bias=0/direct=1/weightb=1/open_gop=0/weightp=2/keyint=75/keyint_min=25/scenecut=40/intra_refresh=0/rc_lookahead=40/rc=2pass/mbtree=1/bitrate=2566/ratetol=1.0/qcomp=0.60/qpmin=5/qpmax=69/qpstep=4/cplxblur=20.0/qblur=0.5/vbv_maxrate=3750/vbv_bufsize=12500/nal_hrd=none/ip_ratio=1.40/aq=1: 1.00
    Encoded date : UTC 2013-11-19 02: 30: 36
    Tagged date : UTC 2013-11-19 02: 30: 36
    Codec configuration box : avcC
    Audio
    ID : 2
    Format : AAC LC
    Format/Info : Advanced Audio Codec Low Complexity
    Codec ID : mp4a-40-2
    Duration : 3 min 50 s
    Bit rate mode : Variable
    Bit rate : 147 kb/s
    Channel(s) : 2 channels
    Channel layout : L R
    Sampling rate : 48.0 kHz
    Frame rate : 46.875 FPS (1024 SPF)
    Compression mode : Lossy
    Stream size : 4.04 MiB (5%)
    Encoded date : UTC 2013-11-19 02: 30: 36
    Tagged date : UTC 2013-11-19 02: 30: 36
    General
    Unique ID : 180951678948407755522823382975976059122 (0x882206941AA2BADB80731A78BFF030F2)
    Complete name : C: VIDEOPet Shop Boys2020 Pet Shop Boys - Monkey business (Official video) 1920 x 1080.mkv
    Format : Matroska
    Format version : Version 2
    File size : 118 MiB
    Duration : 4 min 11 s
    Overall bit rate : 3 941 kb/s
    Encoded date : UTC 2020-01-25 20: 49: 08
    Writing application : mkvmerge v4.1.1 (\'Bouncin\' Back\') сборка от Jul 3 2010 22: 54: 08
    Writing library : libebml v1.0.0 + libmatroska v1.0.0
    Video
    ID : 1
    Format : AVC
    Format/Info : Advanced Video Codec
    Format profile : High@L4
    Format settings : CABAC/3 Ref Frames
    Format settings, CABAC : Yes
    Format settings, Reference frames : 3 frames
    Codec ID : V_MPEG4/ISO/AVC
    Duration : 4 min 11 s
    Width : 1 920 pixels
    Height : 1 080 pixels
    Display aspect ratio : 16: 9
    Frame rate mode : Constant
    Frame rate : 25.000 FPS
    Color space : YUV
    Chroma subsampling : 4: 2: 0
    Bit depth : 8 bits
    Scan type : Progressive
    Writing library : x264 core 155 r2901 7d0ff22
    Default : Yes
    Forced : No
    Color range : Limited
    Color primaries : BT.709
    Transfer characteristics : BT.709
    Matrix coefficients : BT.709
    Audio
    ID : 2
    Format : AAC LC
    Format/Info : Advanced Audio Codec Low Complexity
    Codec ID : A_AAC-2
    Duration : 4 min 11 s
    Channel(s) : 2 channels
    Channel layout : L R
    Sampling rate : 44.1 kHz
    Frame rate : 43.066 FPS (1024 SPF)
    Compression mode : Lossy
    Default : Yes
    Forced : No
    General
    Unique ID : 214635422445023354776480104951509226514 (0xA179475A47944898934D15A660FD1412)
    Complete name : C: VIDEOPet Shop Boys2020 Pet Shop Boys (feat. Years Years) - Dreamland (Official lyric video) 1920 x 1080.mkv
    Format : Matroska
    Format version : Version 2
    File size : 49.2 MiB
    Duration : 3 min 25 s
    Overall bit rate : 2 005 kb/s
    Encoded date : UTC 2020-01-25 20: 49: 34
    Writing application : mkvmerge v4.1.1 (\'Bouncin\' Back\') сборка от Jul 3 2010 22: 54: 08
    Writing library : libebml v1.0.0 + libmatroska v1.0.0
    Video
    ID : 1
    Format : AVC
    Format/Info : Advanced Video Codec
    Format profile : High@L4.2
    Format settings : CABAC/3 Ref Frames
    Format settings, CABAC : Yes
    Format settings, Reference frames : 3 frames
    Codec ID : V_MPEG4/ISO/AVC
    Duration : 3 min 25 s
    Width : 1 920 pixels
    Height : 1 080 pixels
    Display aspect ratio : 16: 9
    Frame rate mode : Constant
    Frame rate : 50.000 FPS
    Color space : YUV
    Chroma subsampling : 4: 2: 0
    Bit depth : 8 bits
    Scan type : Progressive
    Writing library : x264 core 155 r2901 7d0ff22
    Default : Yes
    Forced : No
    Color range : Limited
    Color primaries : BT.709
    Transfer characteristics : BT.709
    Matrix coefficients : BT.709
    Audio
    ID : 2
    Format : AAC LC
    Format/Info : Advanced Audio Codec Low Complexity
    Codec ID : A_AAC-2
    Duration : 3 min 25 s
    Channel(s) : 2 channels
    Channel layout : L R
    Sampling rate : 44.1 kHz
    Frame rate : 43.066 FPS (1024 SPF)
    Compression mode : Lossy
    Default : Yes
    Forced : No


    Онлайн видео Pet Shop Boys - 3 Music Videos (2012-2020) WEB-DL [H.264



    Pet Shop Boys - 3 Music Videos (2012-2020) WEB-DL [H.264 / 720p / 1080p-LQ] торрент скачать бесплатно
    Рейтинг →
     (голосов: 1, оценка 5/5, голосовать можно 1 раз )

    Другие торренты по теме:

  • Pet Shop Boys - Disco Four (Remixed By Pet Shop Boys) (2007) [FLAC|Lossless|tracks + .cue] <Synth-pop, Electro> скачать через торрент бесплатно
  • Pet Shop Boys - Super Hits Collection (2014) [MP3|320 кб / с]<Syntpop , Pop , Electro-pop , Dance> скачать через торрент бесплатно
  • Pet Shop Boys - Golden Disco Hits (2001) [MP3|320 кб / с]<SynthPop, Electronic> скачать через торрент бесплатно
  • Pet Shop Boys - Disco 3 (2003) [FLAC|Lossless|tracks + .cue] <Synth-pop, Electro> скачать через торрент бесплатно
  • Pet Shop Boys - Story / 25 Years Of Hits (2009) [FLAC|Lossless|tracks + .cue] <Synth-pop, Electro> скачать через торрент бесплатно
  • Pet Shop Boys - Fundamental (2006) Special Limited Edition, 2CD [FLAC|Lossless|tracks + .cue] <Synth-Pop, Electro>
  • Pet Shop Boys - Very (1993) Licence to EMI Records Ltd. [FLAC|Lossless|tracks + .cue] <Pop, Synthpop>
  • Pet Shop Boys - The Pop Kids (Remixes) (2016) [FLAC|Lossless|WEB-DL|tracks] <Progressive House, Electro House>


    • Комментарии (0):

      Информация

      Информация

        Посетители, находящиеся в группе Гости, не могут оставлять комментарии в данной новости.

        ↓ Меню




        ↓ Опрос

        Вы добавили сайт в закладки?
        Да
        Нет


        Популярное