.
Авторизация | Регистрация
bitok.xyz
Торрент скачать бесплатно Фильмы торрент скачать Девять неизвестных (2006) WEBRip (сезон 1, серии 1-4 из 12) (обновляемая) торрент скачать бесплатно


    Девять неизвестных (2006) WEBRip (сезон 1, серии 1-4 из 12) (обновляемая) торрент скачать бесплатно

    Дата: 27-01-2020, 05:00 | .torrent скачали: 0

    Девять неизвестных (2006) WEBRip (сезон 1, серии 1-4 из 12) (обновляемая)Производство: Россия/Первый канал, Talan Film Company, Триада
    Жанр: фэнтези, детектив
    Режиссер: Александр Муратов

    Актеры
    Егор Бероев, Анна Дубровская, Валентин Гафт, Валерий Баринов, Анна Каменкова, Ян Цапник, Виктор Раков, Владимир Еремин, Евгения Добровольская, Михаил Ефремов и др.

    Описание

    Главный герой Мефодий наделен ярко выраженными парапсихологическими способностями — умением читать мысли на расстоянии, даром предвидения и ясновидения. Однако это далеко не всегда спасает его от неожиданных и порой жестоких превратностей судьбы, — напротив, вызывает еще большее ожесточение темных сил, персонифицированных в двух его антагонистах — Пифоне и Артуре…

    Возраст: 16+ (зрителям, достигшим 16 лет)
    Релиз от: Алехаndr
    Продолжительность: ~00: 50: 00 серия
    Качество видео: WEBRip
    Видео: Xvid, 704x400 (16: 9), ~1500 Kbps
    Аудио: AC3, 2 ch, 192 Kbps
    Общее
    Полное имя : D: Девять неизвестных (2006).by.Алехаndr
    Формат : AVI
    Формат/Информация : Audio Video Interleave
    Размер файла : 603 Мбайт
    Продолжительность : 49 м. 33 с.
    Общий поток : 1702 Кбит/сек
    Программа кодирования : Lavf58.29.100
    Видео
    Идентификатор : 0
    Формат : xvid
    Идентификатор кодека : xvid
    Продолжительность : 49 м. 33 с.
    Битрейт : 1499 Кбит/сек
    Ширина : 704 пикселя
    Высота : 400 пикселей
    Соотношение сторон : 16: 9
    Частота кадров : 25, 000 кадров/сек
    Тип развёртки : Прогрессивная
    Бит/(Пиксели*Кадры) : 0.213
    Размер потока : 531 Мбайт (88%)
    Аудио
    Идентификатор : 1
    Формат : AC-3
    Формат/Информация : Audio Coding 3
    Коммерческое название : Dolby Digital
    Идентификатор кодека : 2000
    Продолжительность : 49 м. 33 с.
    Вид битрейта : Постоянный
    Битрейт : 192 Кбит/сек
    Каналы : 2 канала
    ChannelLayout : L R
    Частота : 48, 0 КГц
    Частота кадров : 31, 250 кадров/сек (1536 SPF)
    Битовая глубина : 16 бит
    Метод сжатия : С потерями
    Размер потока : 68, 0 Мбайт (11%)
    Выравнивание : Соединение по промежуткам
    Продолжительность промежутка : 32 мс. (0, 80 видеокадр)
    ServiceKind/String : Complete Main

    Скриншоты для ознакомления



    Все одноименные релизы в Клубе
    Время раздачи: 24/7 (круглосуточно) (до появления первых 3-5 скачавших)

    Онлайн видео Девять неизвестных (2006) WEBRip (сезон любимого сериала 1, серии 1



    Девять неизвестных (2006) WEBRip (сезон 1, серии 1-4 из 12) (обновляемая) торрент скачать бесплатно
    Рейтинг →
     (голосов: 1, оценка 5/5, голосовать можно 1 раз )

    Другие торренты по теме:

  • Девять неизвестных (2006) WEBRip [H.264 / 720p-LQ] (сезон 1, серии 1-12 из 12)


    • Комментарии (0):

      Информация

      Информация

        Посетители, находящиеся в группе Гости, не могут оставлять комментарии в данной новости.

        ↓ Меню




        ↓ Опрос

        Вы добавили сайт в закладки?
        Да
        Нет


        Популярное