.
Авторизация | Регистрация
bitok.xyz
Торрент скачать бесплатно Фильмы торрент скачать Барс (2019) SATRip (сезон 1, серии 1-34 из 34) торрент скачать бесплатно


    Барс (2019) SATRip (сезон 1, серии 1-34 из 34) торрент скачать бесплатно

    Дата: 27-01-2020, 05:00 | .torrent скачали: 1

    Барс (2019) SATRip (сезон 1, серии 1-34 из 34)Производство: Россия/Всемирные русские студии
    Жанр: детектив
    Режиссер: Алексей Чистиков, Дмитрий Магонов, Павел Смирнов

    Актеры
    Алексей Чумаков, Анна Снаткина, Лариса Удовиченко, Екатерина Воронина, Степан Абрамов, Максим Ковалевский, Сергей Беляев, Елизавета Лотова, Александр Пугачев, Дмитрий Родонов и др.

    Описание

    Александр Барс - автор серии невероятно популярных детективов.
    Придуманные писателем детективные сюжеты имеют такую силу воздействия, что кто-то начинает воплощать их в жизнь. Сумасшедший фанат или расчетливый убийца? Чтобы ответить на этот вопрос, Барса подключают к расследованию, которое ведет очаровательная майор полиции Мария Королева.

    Возраст: 16+ (зрителям, достигшим 16 лет)
    Продолжительность: ~00: 42: 00 серия
    Качество видео: SATRip
    Видео: Xvid, 720x400 (16: 9), ~1250 kbps
    Аудио: AC3, 2 ch, 192 kbps
    General
    Complete name : F: Мои сериалыBars_S1_1-34iz34_2019_XviD_SATRipBars_S1_01.avi
    Format : AVI
    Format/Info : Audio Video Interleave
    File size : 445 MiB
    Duration : 42 min 57 s
    Overall bit rate : 1 450 kb/s
    Video
    ID : 0
    Format : MPEG-4 Visual
    Format profile : Advanced Simple@L5
    Format settings : BVOP2
    Format settings, BVOP : 2
    Format settings, QPel : No
    Format settings, GMC : No warppoints
    Format settings, Matrix : Default (H.263)
    Codec ID : XVID
    Codec ID/Hint : XviD
    Duration : 42 min 57 s
    Bit rate : 1 250 kb/s
    Width : 720 pixels
    Height : 400 pixels
    Display aspect ratio : 16: 9
    Frame rate : 25.000 FPS
    Color space : YUV
    Chroma subsampling : 4: 2: 0
    Bit depth : 8 bits
    Scan type : Progressive
    Compression mode : Lossy
    Bits/(Pixel*Frame) : 0.174
    Stream size : 384 MiB (86%)
    Writing library : XviD 67
    Audio
    ID : 1
    Format : AC-3
    Format/Info : Audio Coding 3
    Commercial name : Dolby Digital
    Codec ID : 2000
    Duration : 42 min 57 s
    Bit rate mode : Constant
    Bit rate : 192 kb/s
    Channel(s) : 2 channels
    Channel layout : L R
    Sampling rate : 48.0 kHz
    Frame rate : 31.250 FPS (1536 SPF)
    Bit depth : 16 bits
    Compression mode : Lossy
    Stream size : 59.0 MiB (13%)
    Alignment : Aligned on interleaves
    Interleave, duration : 64 ms (1.60 video frames)
    Interleave, preload duration : 192 ms
    Service kind : Complete Main

    Скриншоты для ознакомления



    Все одноименные релизы в Клубе
    Время раздачи: с 07: 00 до 23: 00 (до появления первых 3-5 скачавших)

    Онлайн видео Барс (2019) SATRip (сезон любимого сериала 1, серии 1



    Барс (2019) SATRip (сезон 1, серии 1-34 из 34) торрент скачать бесплатно
    Рейтинг →
     (голосов: 1, оценка 3/5, голосовать можно 1 раз )

    Другие торренты по теме:

  • Хоккей. КХЛ 2015-2016. Ак барс (Казань) - Автомобилист (Екатеринбург) (13.01.2016) SATRip
  • Хоккей. КХЛ 2015-2016. Ак барс (Казань) - Югра (Ханты-Мансийск) (15.01.2016) SATRip
  • Хоккей. КХЛ 2015-2016. Ак барс (Казань) - Лада (Тольятти) (19.01.2016) SATRip
  • Хоккей. КХЛ 2015-2016. Металлург (Магнитогорск) - Ак барс (Казань) (21.01.2016) SATRip
  • Хоккей. КХЛ 2015-2016. Ак барс (Казань) - Локомотив (Ярославль) (27.01.2016) SATRip
  • Хоккей. КХЛ 2015-2016. Ак барс - Металлург (Магнитогорск) (31.01.2016) SATRip
  • Хоккей. КХЛ 2015-2016. Ак барс - Сибирь (03.02.2016) SATRip
  • Хоккей. КХЛ 2015-2016. Ак Барс - Барыс (16.02.2016) SATRip


    • Комментарии (0):

      Информация

      Информация

        Посетители, находящиеся в группе Гости, не могут оставлять комментарии в данной новости.

        ↓ Меню




        ↓ Опрос

        Вы добавили сайт в закладки?
        Да
        Нет


        Популярное