.
Авторизация | Регистрация
bitok.xyz
Торрент скачать бесплатно Фильмы торрент скачать Токсичная любовь (2019) WEBRip (сезон 1, серии 1-4 из 4) торрент скачать бесплатно


    Токсичная любовь (2019) WEBRip (сезон 1, серии 1-4 из 4) торрент скачать бесплатно

    Дата: 27-01-2020, 05:00 | .torrent скачали: 0

    Токсичная любовь (2019) WEBRip (сезон 1, серии 1-4 из 4)Производство: Россия/Русское
    Жанр: мелодрама, детектив
    Режиссер: Владимир Нахабцев

    Актеры
    Анна Здор, Галина Безрук, Павел Савинков, Роман Полянский, Юлия Железняк, Станислав Ткаченко, Дарья Белоусова, Игорь Фурманюк и др.

    Описание

    Оксана давно мечтает о счастливой семейной жизни. Вот уже несколько лет она встречается с застенчивым преподавателем Виталием, но он не спешит с предложением руки и сердца. После очередной ссоры, Оксана принимает решение расстаться с ним. Сгоряча она выходит замуж за своего нового знакомого — бизнесмена Егора Котова. Однако поспешное замужество не принесло ей ничего, кроме страданий, потерь и … обвинения в нескольких убийствах.

    Дата российской премьеры: 25 января 2020
    Релиз от: Алехаndr
    Продолжительность: ~00: 45: 00 серия
    Качество видео: WEBRip
    Видео: Xvid, 720x400 (16: 9), ~1500 Kbps
    Аудио: AC3, 2 ch, 192 Kbps
    Общее
    Полное имя : D: Токсичная любовь (2019).Серии 1-4.by.Алехаndr.avi
    Формат : AVI
    Формат/Информация : Audio Video Interleave
    Профиль формата : OpenDML
    Размер файла : 2, 14 Гбайт
    Продолжительность : 3 ч. 0 м.
    Общий поток : 1700 Кбит/сек
    Программа кодирования : Lavf58.29.100
    Видео
    Идентификатор : 0
    Формат : xvid
    Идентификатор кодека : xvid
    Продолжительность : 3 ч. 0 м.
    Битрейт : 1497 Кбит/сек
    Ширина : 720 пикселей
    Высота : 400 пикселей
    Соотношение сторон : 16: 9
    Частота кадров : 25, 000 кадров/сек
    Тип развёртки : Прогрессивная
    Бит/(Пиксели*Кадры) : 0.208
    Размер потока : 1, 88 Гбайт (88%)
    Аудио
    Идентификатор : 1
    Формат : AC-3
    Формат/Информация : Audio Coding 3
    Коммерческое название : Dolby Digital
    Идентификатор кодека : 2000
    Продолжительность : 3 ч. 0 м.
    Вид битрейта : Постоянный
    Битрейт : 192 Кбит/сек
    Каналы : 2 канала
    ChannelLayout : L R
    Частота : 48, 0 КГц
    Частота кадров : 31, 250 кадров/сек (1536 SPF)
    Битовая глубина : 16 бит
    Метод сжатия : С потерями
    Размер потока : 247 Мбайт (11%)
    Выравнивание : Соединение по промежуткам
    Продолжительность промежутка : 32 мс. (0, 80 видеокадр)
    ServiceKind/String : Complete Main

    Скриншоты для ознакомления



    Все одноименные релизы в Клубе
    Время раздачи: 24/7 (круглосуточно) (до появления первых 3-5 скачавших)

    Онлайн видео Токсичная любовь (2019) WEBRip (сезон любимого сериала 1, серии 1



    Токсичная любовь (2019) WEBRip (сезон 1, серии 1-4 из 4) торрент скачать бесплатно
    Рейтинг →
     (голосов: 1, оценка 3/5, голосовать можно 1 раз )

    Другие торренты по теме:

  • Токсичная любовь (2019) SATRip [H.264] (сезон 1, серии 1-4 из 4)


    • Комментарии (0):

      Информация

      Информация

        Посетители, находящиеся в группе Гости, не могут оставлять комментарии в данной новости.

        ↓ Меню




        ↓ Опрос

        Вы добавили сайт в закладки?
        Да
        Нет


        Популярное