.
Авторизация | Регистрация
bitok.xyz
Торрент скачать бесплатно Фильмы торрент скачать След (2020) SATRip (серии 2336-2347 из ) (Обновляемая) торрент скачать бесплатно


    След (2020) SATRip (серии 2336-2347 из ) (Обновляемая) торрент скачать бесплатно

    Дата: 27-01-2020, 05:00 | .torrent скачали: 1

    След (2020) SATRip (серии 2336-2347 из ) (Обновляемая)Производство: Россия/Объединение телевизионных компаний, DokuDrama Company
    Жанр: криминал, детектив
    Режиссер: Юрий Харнас, Игорь Ромащенко, Камиль Закиров

    Актеры
    Ольга Копосова, Владимир Ташлыков, Павел Шуваев, Георгий Тесля-Герасимов, Андрей Лавров, Анна Данькова, Сергей Пиоро, Евгений Кулаков, Анастасия Гулимова, Нина Гогаева и др.

    Описание

    Идеальных преступлений не бывает. После каждого остаются следы. Иногда эти следы бросаются в глаза. Иногда их можно найти только с помощью специальных приборов. Федеральная Экспертная служба - это уникальная лаборатория, которая объединяет несколько экспертных служб в одну и отвечает за проведение исследований во всех мыслимых областях прикладной криминалистики, будь то химическая, биологическая, медицинская экспертиза или баллистика...

    Возраст: 16+ (зрителям, достигшим 16 лет)
    Продолжительность: ~00: 38: 00 серия
    Качество видео: SATRip
    Видео: Xvid, 704x400 (16: 9), ~1400 Kbps
    Аудио: MP3, 2 ch, 128 KbpsОбщее
    Полное имя : D: След. 2020.12336 - Распутинские легенды.avi
    Формат : AVI
    Формат/Информация : Audio Video Interleave
    Размер файла : 426 Мбайт
    Продолжительность : 38 м. 45 с.
    Общий поток : 1539 Кбит/сек
    Программа кодирования : VirtualDubMod 1.5.10.3 |www.virtualdub-fr.org|| (build 2550/release)
    Библиотека кодирования : VirtualDubMod build 2550/release
    Видео
    Идентификатор : 0
    Формат : MPEG-4 Visual
    Профиль формата : Advanced Simple@L5
    Настройки формата : BVOP1
    Параметр BVOP формата : 1
    Параметр QPel формата : Нет
    Параметр GMC формата : Без точки перехода
    Параметр матрицы формата : Default (MPEG)
    Идентификатор кодека : XVID
    Идентификатор кодека/Подсказка : XviD
    Продолжительность : 38 м. 45 с.
    Битрейт : 1401 Кбит/сек
    Ширина : 704 пикселя
    Высота : 400 пикселей
    Соотношение сторон : 16: 9
    Частота кадров : 25, 000 кадров/сек
    Цветовое пространство : YUV
    Субдискретизация насыщенности : 4: 2: 0
    Битовая глубина : 8 бит
    Тип развёртки : Прогрессивная
    Метод сжатия : С потерями
    Бит/(Пиксели*Кадры) : 0.199
    Размер потока : 388 Мбайт (91%)
    Библиотека кодирования : XviD 73
    Аудио
    Идентификатор : 1
    Формат : MPEG Audio
    Версия формата : Version 1
    Профиль формата : Layer 3
    Идентификатор кодека : 55
    Идентификатор кодека/Подсказка : MP3
    Продолжительность : 38 м. 45 с.
    Вид битрейта : Постоянный
    Битрейт : 128 Кбит/сек
    Каналы : 2 канала
    Частота : 48, 0 КГц
    Частота кадров : 41, 667 кадра/сек (1152 SPF)
    Метод сжатия : С потерями
    Размер потока : 35, 5 Мбайт (8%)
    Выравнивание : Соединение по промежуткам
    Продолжительность промежутка : 40 мс. (1, 00 видеокадр)
    Время предзагрузки промежутка : 504 мс.
    Библиотека кодирования : LAME3.99r
    Настройки программы : -m s -V 4 -q 0 -lowpass 17 -b 128

    След (2020) SATRip (серии 2336-2347 из ) (Обновляемая) торрент скачать бесплатно
    Рейтинг →
     (голосов: 1, оценка 4/5, голосовать можно 1 раз )

    Другие торренты по теме:

  • След Пираньи (2014) SATRip [Серия 1-4 из 4] скачать через торрент бесплатно
  • След (2014) SATRip (серии 1001 - 1099)
  • След (2014) SATRip (Серии 1100 - 1103) (Обновляемая) скачать через торрент бесплатно
  • След тигра (2014) SATRip
  • След тигра (2014) SATRip [H.264] скачать через торрент бесплатно
  • Русский след. Крым. Последний причал (2014) SATRip
  • Кодекс молчания 2: След чёрной рыбы (1992) SATRip (2 серии) скачать через торрент бесплатно
  • След (2015) SATRip (серии: 1201-1208) (обновляемая) скачать через торрент бесплатно


    • Комментарии (0):

      Информация

      Информация

        Посетители, находящиеся в группе Гости, не могут оставлять комментарии в данной новости.

        ↓ Меню




        ↓ Опрос

        Вы добавили сайт в закладки?
        Да
        Нет


        Популярное