.
Авторизация | Регистрация
bitok.xyz
Торрент скачать бесплатно Фильмы торрент скачать Девять неизвестных (2006) WEBRip [H.264 / 720p-LQ] (сезон 1, серии 1-12 из 12) торрент скачать бесплатно


    Девять неизвестных (2006) WEBRip [H.264 / 720p-LQ] (сезон 1, серии 1-12 из 12) торрент скачать бесплатно

    Дата: 27-01-2020, 05:00 | .torrent скачали: 0

    Девять неизвестных (2006) WEBRip [H.264 / 720p-LQ] (сезон 1, серии 1-12 из 12)Производство: Россия | Первый канал, Talan Film Company, Триада
    Жанр: фэнтези, детектив
    Режиссер: Александр Муратов

    Актеры
    Егор Бероев, Анна Дубровская, Валентин Гафт, Валерий Баринов, Анна Каменкова, Ян Цапник, Виктор Раков, Владимир Еремин, Евгения Добровольская, Михаил Ефремов и др.

    Описание

    Главный герой Мефодий наделен ярко выраженными парапсихологическими способностями — умением читать мысли на расстоянии, даром предвидения и ясновидения. Однако это далеко не всегда спасает его от неожиданных и порой жестоких превратностей судьбы, — напротив, вызывает еще большее ожесточение темных сил, персонифицированных в двух его антагонистах — Пифоне и Артуре…
    Мефодию предстоит потерять и лишь ценой огромных усилий вернуть похищенную ими любимую девушку Таню. Ему повезет встретить человека намного старше себя, — вернувшегося на Родину английского аристократа русского происхождения Севидова — который станет его другом и опорой.

    Возраст: 16+ (зрителям, достигшим 16 лет)
    Продолжительность: ~00: 50: 00 серия
    Качество видео: WEBRip
    Видео: AVC/H.264, 1280x716 (16: 9), ~3000 kbps
    Аудио: AAC, 2 ch, 250 Kbps
    General
    Unique ID : 260999962203345406441127040409941637323 (0xC45AC3A7246052F0C27D60F348B4F8CB)
    Complete name : D: Девять_неизвестных_S01_2006_WEBRip_720pДевять_неизвестных_S01_2006_WEBRip_720p_01.mkv
    Format : Matroska
    Format version : Version 4
    File size : 1.12 GiB
    Duration : 49 min 33 s
    Overall bit rate : 3 244 kb/s
    Encoded date : UTC 2020-01-24 06: 02: 20
    Writing application : mkvmerge v42.0.0 (\'Overtime\') 64-bit
    Writing library : libebml v1.3.10 + libmatroska v1.5.2
    Video
    ID : 1
    Format : AVC
    Format/Info : Advanced Video Codec
    Format profile : High@L3.1
    Format settings : CABAC/5 Ref Frames
    Format settings, CABAC : Yes
    Format settings, ReFrames : 5 frames
    Codec ID : V_MPEG4/ISO/AVC
    Duration : 49 min 33 s
    Bit rate : 3 000 kb/s
    Width : 1 280 pixels
    Height : 716 pixels
    Display aspect ratio : 16: 9
    Frame rate mode : Constant
    Frame rate : 25.000 FPS
    Color space : YUV
    Chroma subsampling : 4: 2: 0
    Bit depth : 8 bits
    Scan type : Progressive
    Bits/(Pixel*Frame) : 0.131
    Stream size : 1.04 GiB (92%)
    Writing library : x264 core 148 r2721 72d53ab
    Encoding settings : cabac=1/ref=5/deblock=1: 0: 0/analyse=0x3: 0x133/me=umh/subme=10/psy=1/psy_rd=1.00: 0.00/mixed_ref=1/me_range=24/chroma_me=1/trellis=2/8x8dct=1/cqm=0/deadzone=21, 11/fast_pskip=1/chroma_qp_offset=-2/threads=22/lookahead_threads=3/sliced_threads=0/nr=0/decimate=1/interlaced=0/bluray_compat=0/constrained_intra=0/bframes=8/b_pyramid=2/b_adapt=2/b_bias=0/direct=3/weightb=1/open_gop=0/weightp=2/keyint=100/keyint_min=50/scenecut=40/intra_refresh=0/rc_lookahead=60/rc=2pass/mbtree=1/bitrate=3000/ratetol=1.0/qcomp=0.60/qpmin=0/qpmax=69/qpstep=4/cplxblur=20.0/qblur=0.5/vbv_maxrate=3300/vbv_bufsize=1500/nal_hrd=none/filler=0/ip_ratio=1.40/aq=1: 1.00
    Default : Yes
    Forced : No
    Audio
    ID : 2
    Format : AAC LC
    Format/Info : Advanced Audio Codec Low Complexity
    Codec ID : A_AAC-2
    Duration : 49 min 33 s
    Bit rate : 250 kb/s
    Channel(s) : 2 channels
    Channel layout : L R
    Sampling rate : 48.0 kHz
    Frame rate : 46.875 FPS (1024 SPF)
    Compression mode : Lossy
    Stream size : 88.7 MiB (8%)
    Default : Yes
    Forced : No

    Скриншоты для ознакомления



    Все одноименные релизы в Клубе
    Время раздачи: 24/7 (до появления первых 3-5 скачавших)

    Онлайн видео Девять неизвестных (2006) WEBRip [H.264



    Девять неизвестных (2006) WEBRip [H.264 / 720p-LQ] (сезон 1, серии 1-12 из 12) торрент скачать бесплатно
    Рейтинг →
     (голосов: 1, оценка 5/5, голосовать можно 1 раз )

    Другие торренты по теме:

  • Девять неизвестных (2006) WEBRip (сезон 1, серии 1-4 из 12) (обновляемая)


    • Комментарии (0):

      Информация

      Информация

        Посетители, находящиеся в группе Гости, не могут оставлять комментарии в данной новости.

        ↓ Меню




        ↓ Опрос

        Вы добавили сайт в закладки?
        Да
        Нет


        Популярное