.
Авторизация | Регистрация
bitok.xyz
Торрент скачать бесплатно Фильмы торрент скачать Легенда Феррари (2019) WEBRip (сезон 1, серии 1-12 из 12) торрент скачать бесплатно

    Легенда Феррари (2019) WEBRip (сезон 1, серии 1-12 из 12) торрент скачать бесплатно

    Дата: 27-01-2020, 05:00 | .torrent скачали: 0

    Легенда Феррари (2019) WEBRip (сезон 1, серии 1-12 из 12)Производство: Россия/ООО Ода Фильм Продакшн
    Жанр: история, детектив
    Режиссер: Константин Максимов

    Актеры
    Ольга Погодина, Павел Делонг, Константин Крюков, Николай Добрынин, Александр Бухаров, Сергей Горобченко, Дмитрий Исаев, Евгений Коряковский, Поля Полякова, Андрей Пермяков и др.

    Описание

    Первые годы после Октябрьской революции. После неудачного покушения на барона Врангеля и гибели агента разведуправления, разрабатывается новый хитроумный план по реализации Крымской миссии. На это дело назначают лучшего агента — Елену Голубовскую. В Крыму Голубовская появляется уже как Эль Феррари — одарённая итальянская поэтесса...

    Дата российской премьеры: 20 января 2020 (НТВ)
    Продолжительность: ~00: 46: 00 серия
    Качество видео: WEBRip
    Видео: Xvid, 720x400 (16: 9), ~1483 kbps
    Аудио: AAC, 2 ch, 192 kbps
    General
    Complete name : F: Мои сериалыLegenda_Ferrari_S1_1-12iz12_2020_XviD_WEBRipLegenda_Ferrari_S1_01.avi
    Format : AVI
    Format/Info : Audio Video Interleave
    File size : 557 MiB
    Duration : 46 min 5 s
    Overall bit rate : 1 689 kb/s
    Writing library : VirtualDub build 41106/release
    Video
    ID : 0
    Format : MPEG-4 Visual
    Format profile : Advanced Simple@L5
    Format settings : BVOP2
    Format settings, BVOP : 2
    Format settings, QPel : No
    Format settings, GMC : No warppoints
    Format settings, Matrix : Default (H.263)
    Codec ID : XVID
    Codec ID/Hint : XviD
    Duration : 46 min 5 s
    Bit rate : 1 483 kb/s
    Width : 720 pixels
    Height : 400 pixels
    Display aspect ratio : 16: 9
    Frame rate : 25.000 FPS
    Color space : YUV
    Chroma subsampling : 4: 2: 0
    Bit depth : 8 bits
    Scan type : Progressive
    Compression mode : Lossy
    Bits/(Pixel*Frame) : 0.206
    Stream size : 489 MiB (88%)
    Writing library : XviD 68
    Audio
    ID : 1
    Format : AAC LC
    Format/Info : Advanced Audio Codec Low Complexity
    Codec ID : FF-2
    Duration : 46 min 5 s
    Bit rate : 192 kb/s
    Channel(s) : 2 channels
    Channel layout : L R
    Sampling rate : 48.0 kHz
    Frame rate : 46.875 FPS (1024 SPF)
    Compression mode : Lossy
    Stream size : 63.2 MiB (11%)
    Alignment : Split accross interleaves
    Interleave, duration : 21 ms (0.53 video frame)
    Interleave, preload duration : 597 ms

    Скриншоты для ознакомления



    Все одноименные релизы в Клубе
    Время раздачи: с 07: 00 до 23: 00 (до появления первых 3-5 скачавших)

    Онлайн видео Легенда Феррари (2019) WEBRip (сезон любимого сериала 1, серии 1



    Легенда Феррари (2019) WEBRip (сезон 1, серии 1-12 из 12) торрент скачать бесплатно
    Рейтинг →
     (голосов: 1, оценка 5/5, голосовать можно 1 раз )

    Другие торренты по теме:

  • Легенда Феррари (2019) WEBRip [H.264] (сезон 1, серии 1-12 из 12)
  • Легенда Феррари (2019) WEB-DL [H.264 / 1080p] (сезон 1, серии 1-12 из 12)


    • Комментарии (0):

      Информация

      Информация

        Посетители, находящиеся в группе Гости, не могут оставлять комментарии в данной новости.

        ↓ Меню




        ↓ Опрос

        Вы добавили сайт в закладки?
        Да
        Нет


        Популярное