.
Авторизация | Регистрация
bitok.xyz
Торрент скачать бесплатно Фильмы торрент скачать Лучшие враги (2014) WEBRip [H.264] (сезон 1, серии 1-22 из 30) (обновляемая) торрент скачать бесплатно


    Лучшие враги (2014) WEBRip [H.264] (сезон 1, серии 1-22 из 30) (обновляемая) торрент скачать бесплатно

    Дата: 27-01-2020, 05:00 | .torrent скачали: 0

    Лучшие враги (2014) WEBRip [H.264] (сезон 1, серии 1-22 из 30) (обновляемая)Производство: Россия | Триикс Медиа
    Жанр: криминал, детектив
    Режиссер: Богдан Дробязко, Денис Скворцов, Олег Ларин

    Актеры
    Алексей Нилов, Максим Ханжов, Сергей Селин, Сергей Апрельский, Анна Табанина, Вера Сотникова, Егор Капустин, Ирина Обрезкова, Андрей Белоцерковский, Юлия Башорина и др.

    Описание

    Главные герои этого сериала — Глеб Данилов, подполковник, начальник оперативно-розыскной группы ГУВД, и Владимир Старыгин, тоже подполковник, начальник аналитической группы. Два начальника, два опытных работника — они друг друга недолюбливают. Данилов — простой мужик, через три слова мат, через два — рюмка. Старыгин — интеллигент, аристократ. Данилов, хоть и подполковник, ночами сидит с операми в засаде, спит в кабинете на стульях. Оперов любит по-отцовски, старается их прикрывать, если кто проколется. Подчиненные к нему, соответственно относятся, что называется, — в огонь и в воду. Старыгин сидит в уютном офисе в окружении трех сотрудников.

    Возраст: 16+ (зрителям, достигшим 16 лет)
    Продолжительность: ~00: 45: 00 серия
    Качество видео: WEBRip
    Видео: AVC/H.264, 1024x576 (16: 9), ~1600 kbps
    Аудио: AC3, 2 ch, 192 Kbps
    General
    Unique ID : 222121668247872736182403203117109127981 (0xA71B13C4880FC47099D87EBB94B6AB2D)
    Complete name : F: Лучшие_враги_S01_2014_WEBRip_AVCЛучшие_враги_S01_2014_WEBRip_AVC_01.mkv
    Format : Matroska
    Format version : Version 2
    File size : 589 MiB
    Duration : 45 min 56 s
    Overall bit rate : 1 791 kb/s
    Encoded date : UTC 2020-01-03 11: 36: 02
    Writing application : mkvmerge v7.8.0 (\'River Man\') 32bit built on Apr 3 2015 12: 11: 22
    Writing library : libebml v1.3.1 + libmatroska v1.4.2
    Video
    ID : 1
    Format : AVC
    Format/Info : Advanced Video Codec
    Format profile : High@L4.1
    Format settings : CABAC/9 Ref Frames
    Format settings, CABAC : Yes
    Format settings, ReFrames : 9 frames
    Codec ID : V_MPEG4/ISO/AVC
    Duration : 45 min 56 s
    Bit rate : 1 600 kb/s
    Width : 1 024 pixels
    Height : 576 pixels
    Display aspect ratio : 16: 9
    Frame rate mode : Constant
    Frame rate : 25.000 FPS
    Color space : YUV
    Chroma subsampling : 4: 2: 0
    Bit depth : 8 bits
    Scan type : Progressive
    Bits/(Pixel*Frame) : 0.109
    Stream size : 514 MiB (87%)
    Writing library : x264 core 146 r2538 121396c
    Encoding settings : cabac=1/ref=9/deblock=1: -2: -1/analyse=0x3: 0x133/me=umh/subme=9/psy=1/psy_rd=1.00: 0.15/mixed_ref=1/me_range=32/chroma_me=1/trellis=2/8x8dct=1/cqm=0/deadzone=21, 11/fast_pskip=0/chroma_qp_offset=-3/threads=18/lookahead_threads=3/sliced_threads=0/nr=0/decimate=1/interlaced=0/bluray_compat=0/constrained_intra=0/bframes=9/b_pyramid=2/b_adapt=2/b_bias=0/direct=1/weightb=1/open_gop=0/weightp=2/keyint=250/keyint_min=25/scenecut=40/intra_refresh=0/rc=2pass/mbtree=0/bitrate=1600/ratetol=1.0/qcomp=0.60/qpmin=0/qpmax=69/qpstep=4/cplxblur=20.0/qblur=0.5/ip_ratio=1.40/pb_ratio=1.30/aq=2: 1.00
    Default : Yes
    Forced : No
    Color range : Limited
    Color primaries : BT.709
    Transfer characteristics : BT.709
    Matrix coefficients : BT.709
    Audio
    ID : 2
    Format : AC-3
    Format/Info : Audio Coding 3
    Commercial name : Dolby Digital
    Codec ID : A_AC3
    Duration : 45 min 56 s
    Bit rate mode : Constant
    Bit rate : 192 kb/s
    Channel(s) : 2 channels
    Channel layout : L R
    Sampling rate : 48.0 kHz
    Frame rate : 31.250 FPS (1536 SPF)
    Bit depth : 16 bits
    Compression mode : Lossy
    Stream size : 63.1 MiB (11%)
    Service kind : Complete Main
    Default : Yes
    Forced : No

    Скриншоты для ознакомления



    Все одноименные релизы в Клубе
    Время раздачи: 24/7 (до появления первых 3-5 скачавших)

    Онлайн видео Лучшие враги (2014) WEBRip [H.264] (сезон любимого сериала 1, серии 1



    Лучшие враги (2014) WEBRip [H.264] (сезон 1, серии 1-22 из 30) (обновляемая) торрент скачать бесплатно
    Рейтинг →
     (голосов: 1, оценка 5/5, голосовать можно 1 раз )

    Другие торренты по теме:

  • Лучшие враги (2014) SATRip (серии 1-6 из 30) (Обновляемая) скачать через торрент бесплатно
  • Лучшие враги (2014) HDTVRip (серии 1-30 из 30)
  • Лучшие враги / The Best of Enemies (2019) WEB-DLRip [H.264] [MVO]
  • Лучшие враги / The Best of Enemies (2019) WEB-DL [H.264 / 1080p-LQ] [MVO]
  • Лучшие враги / The Best of Enemies (2019) BDRemux [H.264 / 1080p]
  • Лучшие враги / The Best of Enemies (2019) BDRip [H.264 / 1080p] [PR]
  • Лучшие враги / The Best of Enemies (2019) BDRip [H.264 / 720p]
  • Лучшие враги / The Best of Enemies (2019) BDRip [H.264 / 1080p]


    • Комментарии (0):

      Информация

      Информация

        Посетители, находящиеся в группе Гости, не могут оставлять комментарии в данной новости.

        ↓ Меню




        ↓ Опрос

        Вы добавили сайт в закладки?
        Да
        Нет


        Популярное