.
Авторизация | Регистрация
bitok.xyz
Торрент скачать бесплатно Фильмы торрент скачать Легенда Феррари (2019) WEB-DL [H.264 / 1080p] (сезон 1, серии 1-12 из 12) торрент скачать бесплатно


    Легенда Феррари (2019) WEB-DL [H.264 / 1080p] (сезон 1, серии 1-12 из 12) торрент скачать бесплатно

    Дата: 27-01-2020, 05:00 | .torrent скачали: 1

    Легенда Феррари (2019) WEB-DL [H.264 / 1080p] (сезон 1, серии 1-12 из 12)Производство: Россия | ООО Ода Фильм Продакшн
    Жанр: история, детектив
    Режиссер: Константин Максимов

    Актеры
    Ольга Погодина, Павел Делонг, Константин Крюков, Николай Добрынин, Александр Бухаров, Сергей Горобченко, Дмитрий Исаев, Евгений Коряковский, Поля Полякова, Андрей Пермяков и др.

    Описание

    Первые годы после Октябрьской революции. После неудачного покушения на барона Врангеля и гибели агента разведуправления, разрабатывается новый хитроумный план по реализации Крымской миссии. На это дело назначают лучшего агента — Елену Голубовскую. В Крыму Голубовская появляется уже как Эль Феррари — одарённая итальянская поэтесса. Её задачей становится устранение Врангеля с целью деморализации белого движения, а также контроль над операцией по похищению золота. Её планам мешает Максимилиан Эрмлер, журналист местной газеты, оказавшийся по совместительству агентом британской разведки.

    Дата российской премьеры: 20 января 2020
    Продолжительность: ~00: 47: 00 серия
    Качество видео: WEB-DL
    Видео: AVC/H.264, 1920x1080 (16: 9), ~6000 kbps
    Аудио: AC3, 2 ch, 192 Kbps
    General
    Unique ID : 98211742986814606475883800455168317709 (0x49E2E4C79D55D373B578461069EED90D)
    Complete name : D: Легенда_Феррари_S01_2019_WEB-DL_1080pЛегенда_Феррари_S01_2019_WEB-DL_1080p_03.mkv
    Format : Matroska
    Format version : Version 4
    File size : 2.10 GiB
    Duration : 48 min 49 s
    Overall bit rate mode : Constant
    Overall bit rate : 6 148 kb/s
    Encoded date : UTC 2020-01-22 05: 58: 17
    Writing application : mkvmerge v39.0.0 (\'In The Waiting Line\') 64-bit
    Writing library : libebml v1.3.9 + libmatroska v1.5.2
    Video
    ID : 1
    Format : AVC
    Format/Info : Advanced Video Codec
    Format profile : High@L4.1
    Format settings : 2 Ref Frames
    Format settings, CABAC : No
    Format settings, ReFrames : 2 frames
    Codec ID : V_MPEG4/ISO/AVC
    Duration : 48 min 49 s
    Bit rate mode : Constant
    Bit rate : 6 000 kb/s
    Width : 1 920 pixels
    Height : 1 080 pixels
    Display aspect ratio : 16: 9
    Frame rate mode : Constant
    Frame rate : 25.000 FPS
    Standard : PAL
    Color space : YUV
    Chroma subsampling : 4: 2: 0
    Bit depth : 8 bits
    Scan type : Progressive
    Bits/(Pixel*Frame) : 0.116
    Stream size : 2.03 GiB (97%)
    Language : English
    Default : Yes
    Forced : No
    Color range : Limited
    Color primaries : BT.709
    Transfer characteristics : BT.709
    Matrix coefficients : BT.709
    Audio
    ID : 2
    Format : AC-3
    Format/Info : Audio Coding 3
    Commercial name : Dolby Digital
    Codec ID : A_AC3
    Duration : 48 min 49 s
    Bit rate mode : Constant
    Bit rate : 192 kb/s
    Channel(s) : 2 channels
    Channel layout : L R
    Sampling rate : 48.0 kHz
    Frame rate : 31.250 FPS (1536 SPF)
    Bit depth : 16 bits
    Compression mode : Lossy
    Stream size : 67.1 MiB (3%)
    Service kind : Complete Main
    Default : Yes
    Forced : No

    Скриншоты для ознакомления



    Все одноименные релизы в Клубе
    Время раздачи: 24/7 (до появления первых 3-5 скачавших)

    Онлайн видео Легенда Феррари (2019) WEB-DL [H.264



    Легенда Феррари (2019) WEB-DL [H.264 / 1080p] (сезон 1, серии 1-12 из 12) торрент скачать бесплатно
    Рейтинг →
     (голосов: 1, оценка 5/5, голосовать можно 1 раз )

    Другие торренты по теме:

  • Легенда Феррари (2019) WEBRip [H.264] (сезон 1, серии 1-12 из 12)
  • Легенда Феррари (2019) WEBRip (сезон 1, серии 1-12 из 12)


    • Комментарии (0):

      Информация

      Информация

        Посетители, находящиеся в группе Гости, не могут оставлять комментарии в данной новости.

        ↓ Меню




        ↓ Опрос

        Вы добавили сайт в закладки?
        Да
        Нет


        Популярное