.
Авторизация | Регистрация
bitok.xyz
Торрент скачать бесплатно Фильмы торрент скачать Ученица Мессинга (2017) HDTVRip [H.264] (сезон 1, серии 1-8 из 16) (обновляемая) торрент скачать бесплатно


    Ученица Мессинга (2017) HDTVRip [H.264] (сезон 1, серии 1-8 из 16) (обновляемая) торрент скачать бесплатно

    Дата: 27-01-2020, 05:00 | .torrent скачали: 0

    Ученица Мессинга (2017) HDTVRip [H.264] (сезон 1, серии 1-8 из 16) (обновляемая)Производство: Россия | Студия Артель
    Жанр: биография, драма, история
    Режиссер: Владимир Нахабцев

    Актеры
    Татьяна Чердынцева, Юрий Беляев, Кирилл Гребенщиков, Екатерина Вилкова, Александр Лыков, Сергей Андрейчук, Александр Конев, Елена Руфанова, Василиса Немцова, Валерий Кухарешин и др.

    Описание

    Обладая уникальным экстрасенсорным даром и неординарными способностями, Ольга становится сначала ассистенткой знаменитого гипнотизёра Вольфа Мессинга, а потом и известной артисткой, показывая на эстраде психологические опыты. Пройдя через испытания и искушения, счастье и боль, трагические события и успех, смерть близких людей и собственные сомнения, она находит свое истинное предназначение в помощи людям.

    Дата российской премьеры: 20 января 2020
    Продолжительность: ~00: 50: 00 серия
    Качество видео: HDTVRip
    Видео: AVC/H.264, 1024x576 (16: 9), ~2000 kbps
    Аудио: AC3, 2 ch, 192 Kbps
    General
    Unique ID : 176076459418024917663683059305623306567 (0x847717B2A2422B90A4BEE691674FC147)
    Complete name : D: Ученица_Мессинга_S01_2019_HDTVRip_AVCУченица_Мессинга_S01_2019_HDTVRip_AVC_01.mkv
    Format : Matroska
    Format version : Version 2
    File size : 789 MiB
    Duration : 50 min 16 s
    Overall bit rate : 2 194 kb/s
    Encoded date : UTC 2020-01-20 18: 04: 14
    Writing application : mkvmerge v7.8.0 (\'River Man\') 32bit built on Apr 3 2015 12: 11: 22
    Writing library : libebml v1.3.1 + libmatroska v1.4.2
    Video
    ID : 1
    Format : AVC
    Format/Info : Advanced Video Codec
    Format profile : High@L4.1
    Format settings : CABAC/9 Ref Frames
    Format settings, CABAC : Yes
    Format settings, ReFrames : 9 frames
    Codec ID : V_MPEG4/ISO/AVC
    Duration : 50 min 16 s
    Bit rate : 2 000 kb/s
    Width : 1 024 pixels
    Height : 576 pixels
    Display aspect ratio : 16: 9
    Frame rate mode : Constant
    Frame rate : 25.000 FPS
    Color space : YUV
    Chroma subsampling : 4: 2: 0
    Bit depth : 8 bits
    Scan type : Progressive
    Bits/(Pixel*Frame) : 0.136
    Stream size : 704 MiB (89%)
    Writing library : x264 core 146 r2538 121396c
    Encoding settings : cabac=1/ref=9/deblock=1: -2: -1/analyse=0x3: 0x133/me=umh/subme=9/psy=1/psy_rd=1.00: 0.15/mixed_ref=1/me_range=32/chroma_me=1/trellis=2/8x8dct=1/cqm=0/deadzone=21, 11/fast_pskip=0/chroma_qp_offset=-3/threads=18/lookahead_threads=3/sliced_threads=0/nr=0/decimate=1/interlaced=0/bluray_compat=0/constrained_intra=0/bframes=9/b_pyramid=2/b_adapt=2/b_bias=0/direct=1/weightb=1/open_gop=0/weightp=2/keyint=250/keyint_min=25/scenecut=40/intra_refresh=0/rc=2pass/mbtree=0/bitrate=2000/ratetol=1.0/qcomp=0.60/qpmin=0/qpmax=69/qpstep=4/cplxblur=20.0/qblur=0.5/ip_ratio=1.40/pb_ratio=1.30/aq=2: 1.00
    Default : Yes
    Forced : No
    Color range : Limited
    Color primaries : BT.709
    Transfer characteristics : BT.709
    Matrix coefficients : BT.709
    Audio
    ID : 2
    Format : AC-3
    Format/Info : Audio Coding 3
    Commercial name : Dolby Digital
    Codec ID : A_AC3
    Duration : 50 min 16 s
    Bit rate mode : Constant
    Bit rate : 192 kb/s
    Channel(s) : 2 channels
    Channel layout : L R
    Sampling rate : 48.0 kHz
    Frame rate : 31.250 FPS (1536 SPF)
    Bit depth : 16 bits
    Compression mode : Lossy
    Stream size : 69.0 MiB (9%)
    Service kind : Complete Main
    Default : Yes
    Forced : No

    Скриншоты для ознакомления



    Все одноименные релизы в Клубе
    Время раздачи: 24/7 (до появления первых 3-5 скачавших)

    Онлайн видео Ученица Мессинга (2017) HDTVRip [H.264] (сезон любимого сериала 1, серии 1



    Ученица Мессинга (2017) HDTVRip [H.264] (сезон 1, серии 1-8 из 16) (обновляемая) торрент скачать бесплатно
    Рейтинг →
     (голосов: 1, оценка 3/5, голосовать можно 1 раз )

    Другие торренты по теме:

  • Ученица Мессинга (2017) SATRip [H.264] (сезон 1, серии 1-8 из 16) (обновляемая)
  • Ученица Мессинга (2019) HDTVRip (сезон 1, серии 1-16 из 16)


    • Комментарии (0):

      Информация

      Информация

        Посетители, находящиеся в группе Гости, не могут оставлять комментарии в данной новости.

        ↓ Меню




        ↓ Опрос

        Вы добавили сайт в закладки?
        Да
        Нет


        Популярное