.
Авторизация | Регистрация
bitok.xyz
Торрент скачать бесплатно Фильмы торрент скачать Гоша (2014) WEBRip [H.264 / 1080p-LQ] (сезон 1, серии 1-2 из 14) (обновляемая) торрент скачать бесплатно


    Гоша (2014) WEBRip [H.264 / 1080p-LQ] (сезон 1, серии 1-2 из 14) (обновляемая) торрент скачать бесплатно

    Дата: 27-01-2020, 05:00 | .torrent скачали: 0

    Гоша (2014) WEBRip [H.264 / 1080p-LQ] (сезон 1, серии 1-2 из 14) (обновляемая)Производство: Россия/Кинокомпания НЕБО, по заказу YBW Group
    Жанр: комедия
    Режиссер: Михаил Миронов

    Актеры
    Мкртыч Арзуманян, Виктория Рунцова, Григорий Багров, Андрей Капустин, Ёла Санько, Альбина Евтушевская, Алексей Дмитриев, Андрей Свиридов, Бари Алибасов, Сергей Глушко

    Описание

    Вот уже 30 лет Гоша живёт по одному и тому же расписанию, встаёт рано утром, кормит золотую рыбку и смотрит старенький телевизор. У него смешные очки, тапочки-собачки и огромное желание стать счастливым. А для счастья ему нужны всего лишь мир во всём мире, автомобиль и Она. Она — это Юля из банка, идеальная девушка мечты, которая почему-то не замечает Гошу. При внушительном росте он, как маленький мальчик, боится каждого шороха и избегает встречи с дворовыми хулиганами. Жизнь стеснительного Георгия могла быть скучной, если бы не многочисленные приключения, в которые он попадает, стоит выйти из дома. Живой и непосредственный герой так и не научился ладить с людьми, и каждая встреча с окружающим миром оборачивается курьёзом: будь то визит к парикмахеру, посещение модной выставки или поиск работы (а герой перепробует множество профессий). Но Гоша никогда не изменяет себе и каждый день пробует что-то новое, тем более, что оптимизма ему не занимать.

    Возраст: 16+ (зрителям, достигшим 16 лет)
    Дата российской премьеры: 25 января 2020
    Продолжительность: ~ 00: 25: 00 серия
    Качество видео: WEBRip
    Видео: AVC/H.264, 1920x1080 (16: 9), ~6317 Kbps
    Аудио: AC3, 2 ch, 192 Kbps
    Общее
    Уникальный идентификатор : 179517435200867719696764506810512471549 (0x870DCCE6F7DA368D944D6ADA633675FD)
    Полное имя : F: СЕРИАЛЫГОШАGosha.S01.2014.WEB-DL.(1080p).GettyGosha.s01e01.2014.WEB-DL.(1080p).Getty.mkv
    Формат : Matroska
    Версия формата : Version 4
    Размер файла : 1, 11 Гбайт
    Продолжительность : 24 м. 2 с.
    Общий поток : 6641 Кбит/сек
    Название фильма : Gosha.e01.2014.WEB-DL.(1080p).Getty
    Дата кодирования : UTC 2020-01-17 23: 44: 19
    Программа кодирования : mkvmerge v7.8.0 (\'River Man\') 32bit built on Mar 27 2015 16: 18: 02
    Библиотека кодирования : libebml v1.3.1 + libmatroska v1.4.2
    IsTruncated : Yes
    Видео
    Идентификатор : 1
    Формат : AVC
    Формат/Информация : Advanced Video Codec
    Профиль формата : High@L4
    Настройки формата : CABAC/4 Ref Frames
    Параметр CABAC формата : Да
    Параметр RefFrames формата : 4 кадра
    Идентификатор кодека : V_MPEG4/ISO/AVC
    Продолжительность : 24 м. 2 с.
    Битрейт : 6317 Кбит/сек
    Ширина : 1920 пикселей
    Высота : 1080 пикселей
    Соотношение сторон : 16: 9
    Режим частоты кадров : Постоянный
    Частота кадров : 23, 976 (24000/1001) кадра/сек
    Цветовое пространство : YUV
    Субдискретизация насыщенности : 4: 2: 0
    Битовая глубина : 8 бит
    Тип развёртки : Прогрессивная
    Бит/(Пиксели*Кадры) : 0.127
    Размер потока : 1, 06 Гбайт (95%)
    Default : Да
    Forced : Нет
    Аудио
    Идентификатор : 2
    Формат : AC-3
    Формат/Информация : Audio Coding 3
    Коммерческое название : Dolby Digital
    Идентификатор кодека : A_AC3
    Продолжительность : 24 м. 2 с.
    Вид битрейта : Постоянный
    Битрейт : 192 Кбит/сек
    Каналы : 2 канала
    ChannelLayout : L R
    Частота : 48, 0 КГц
    Частота кадров : 31, 250 кадров/сек (1536 SPF)
    Битовая глубина : 16 бит
    Метод сжатия : С потерями
    Размер потока : 33, 0 Мбайт (3%)
    ServiceKind/String : Complete Main
    Default : Да
    Forced : Нет

    Скриншоты для ознакомления



    Все одноименные релизы в Клубе
    Время раздачи: 24/7 (до появления первых 3-5 скачавших)

    Онлайн видео Гоша (2014) WEBRip [H.264



    Гоша (2014) WEBRip [H.264 / 1080p-LQ] (сезон 1, серии 1-2 из 14) (обновляемая) торрент скачать бесплатно
    Рейтинг →
     (голосов: 1, оценка 3/5, голосовать можно 1 раз )

    Другие торренты по теме:

  • Гоша (2014) WEBRip (сезон 1, серии 1-2 из 14) (обновляемая)
  • Гоша (2014) WEBRip [H.264] (сезон 1, серии 1-2 из 14) (обновляемая)


    • Комментарии (0):

      Информация

      Информация

        Посетители, находящиеся в группе Гости, не могут оставлять комментарии в данной новости.

        ↓ Меню




        ↓ Опрос

        Вы добавили сайт в закладки?
        Да
        Нет


        Популярное