.
Авторизация | Регистрация
bitok.xyz
Торрент скачать бесплатно Фильмы торрент скачать Гоша (2014) WEBRip (сезон 1, серии 1-2 из 14) (обновляемая) торрент скачать бесплатно


    Гоша (2014) WEBRip (сезон 1, серии 1-2 из 14) (обновляемая) торрент скачать бесплатно

    Дата: 27-01-2020, 05:00 | .torrent скачали: 0

    Гоша (2014) WEBRip (сезон 1, серии 1-2 из 14) (обновляемая)Производство: Россия/Кинокомпания НЕБО, по заказу YBW Group
    Жанр: Комедия
    Режиссер: Михаил Миронов

    Актеры
    Мкртыч Арзуманян, Виктория Рунцова, Григорий Багров, Андрей Капустин, Ёла Санько, Альбина Евтушевская, Алексей Дмитриев, Андрей Свиридов, Бари Алибасов, Сергей Глушко

    Описание

    Вот уже 30 лет Гоша живёт по одному и тому же расписанию, встаёт рано утром, кормит золотую рыбку и смотрит старенький телевизор. У него смешные очки, тапочки-собачки и огромное желание стать счастливым. А для счастья ему нужны всего лишь мир во всём мире, автомобиль и Она. Она — это Юля из банка, идеальная девушка мечты, которая почему-то не замечает Гошу. При внушительном росте он, как маленький мальчик, боится каждого шороха и избегает встречи с дворовыми хулиганами. Жизнь стеснительного Георгия могла быть скучной, если бы не многочисленные приключения, в которые он попадает, стоит выйти из дома. Живой и непосредственный герой так и не научился ладить с людьми, и каждая встреча с окружающим миром оборачивается курьёзом: будь то визит к парикмахеру, посещение модной выставки или поиск работы (а герой перепробует множество профессий). Но Гоша никогда не изменяет себе и каждый день пробует что-то новое, тем более, что оптимизма ему не занимать.

    Возраст: 16+ (зрителям, достигшим 16 лет)
    Дата российской премьеры: 25 января 2020
    Продолжительность: ~ 00: 25: 00 серия
    Качество видео: WEBRip
    Видео: XviD, 720x400 (16: 9), ~1550 Kbps
    Аудио: AC3, 2 ch, 192 Kbps
    Общее
    Полное имя : F: СЕРИАЛЫГОШАGosha.S01.2014.WEB-DLRip.25KuzmichGosha.s01e01.2014.WEB-DLRip.25Kuzmich.avi
    Формат : AVI
    Формат/Информация : Audio Video Interleave
    Размер файла : 301 Мбайт
    Продолжительность : 23 м. 58 с.
    Общий поток : 1753 Кбит/сек
    Программа кодирования : VirtualDubMod 1.5.10.3 |www.virtualdub-fr.org|| (build 2550/release)
    Библиотека кодирования : VirtualDubMod build 2550/release
    Видео
    Идентификатор : 0
    Формат : MPEG-4 Visual
    Профиль формата : Advanced Simple@L5
    Настройки формата : BVOP1
    Параметр BVOP формата : 1
    Параметр QPel формата : Нет
    Параметр GMC формата : Без точки перехода
    Параметр матрицы формата : Default (MPEG)
    Идентификатор кодека : XVID
    Идентификатор кодека/Подсказка : XviD
    Продолжительность : 23 м. 58 с.
    Битрейт : 1551 Кбит/сек
    Ширина : 720 пикселей
    Высота : 400 пикселей
    Соотношение сторон : 16: 9
    Частота кадров : 25, 000 кадров/сек
    Цветовое пространство : YUV
    Субдискретизация насыщенности : 4: 2: 0
    Битовая глубина : 8 бит
    Тип развёртки : Прогрессивная
    Метод сжатия : С потерями
    Бит/(Пиксели*Кадры) : 0.215
    Размер потока : 266 Мбайт (88%)
    Библиотека кодирования : XviD 73
    Аудио
    Идентификатор : 1
    Формат : AC-3
    Формат/Информация : Audio Coding 3
    Коммерческое название : Dolby Digital
    Идентификатор кодека : 2000
    Продолжительность : 23 м. 58 с.
    Вид битрейта : Постоянный
    Битрейт : 192 Кбит/сек
    Каналы : 2 канала
    ChannelLayout : L R
    Частота : 48, 0 КГц
    Частота кадров : 31, 250 кадров/сек (1536 SPF)
    Битовая глубина : 16 бит
    Метод сжатия : С потерями
    Размер потока : 32, 9 Мбайт (11%)
    Выравнивание : Разделение по промежуткам
    Продолжительность промежутка : 40 мс. (1, 00 видеокадр)
    Время предзагрузки промежутка : 500 мс.
    ServiceKind/String : Complete Main

    Скриншоты для ознакомления



    Все одноименные релизы в Клубе
    Время раздачи: 24/7 (до появления первых 3-5 скачавших)

    Онлайн видео Гоша (2014) WEBRip (сезон любимого сериала 1, серии 1



    Гоша (2014) WEBRip (сезон 1, серии 1-2 из 14) (обновляемая) торрент скачать бесплатно
    Рейтинг →
     (голосов: 1, оценка 4/5, голосовать можно 1 раз )

    Другие торренты по теме:

  • Гоша (2014) WEBRip [H.264 / 1080p-LQ] (сезон 1, серии 1-2 из 14) (обновляемая)
  • Гоша (2014) WEBRip [H.264] (сезон 1, серии 1-2 из 14) (обновляемая)


    • Комментарии (0):

      Информация

      Информация

        Посетители, находящиеся в группе Гости, не могут оставлять комментарии в данной новости.

        ↓ Меню




        ↓ Опрос

        Вы добавили сайт в закладки?
        Да
        Нет


        Популярное