.
Авторизация | Регистрация
bitok.xyz
Торрент скачать бесплатно Фильмы торрент скачать Линии судьбы (2003) DVDRip (сезон 1, серии 1-24 из 24) торрент скачать бесплатно


    Линии судьбы (2003) DVDRip (сезон 1, серии 1-24 из 24) торрент скачать бесплатно

    Дата: 27-01-2020, 05:00 | .torrent скачали: 0

    Линии судьбы (2003) DVDRip (сезон 1, серии 1-24 из 24)Производство: Россия/Всемирные русские студии
    Жанр: мелодрама, детектив
    Режиссер: Дмитрий Месхиев

    Актеры
    Валентина Талызина, Сергей Гармаш, Ирина Розанова, Константин Хабенский, Наталья Суркова, Татьяна Колганова, Леонид Громов, Андрей Краско, Павел Бадыров, Зоя Буряк и др.

    Описание

    Сериал построен по принципу рокового кроссворда - много героев (все отечественные звезды), несколько сюжетных линий, и все они, как выясняется при просмотре, тесно связаны. История о судьбах приезжих и столичных жителях. О том, как люди, приезжающие в Большой город, пытаются устроить свою жизнь. У кого-то из них это получается легко и просто, у кого-то рушатся все надежды. Наши герои приехали вместе и пока равны перед столицей. И конечно, даже представить не могут, что ждет каждого из них всего через пару месяцев...

    Возраст: 12+ (зрителям, достигшим 12 лет)
    Продолжительность: ~00: 44: 00 серия
    Качество видео: DVDRip
    Видео: Xvid, 720x480 (3: 2), ~1562 kbps
    Аудио: AC3, 2 ch, 192 kbps
    General
    Complete name : F: Мои сериалыLinija_sud\'by_S1_1-24iz24_2005_XviD_WEBRipLinija_sud\'by_S1_01.avi
    Format : AVI
    Format/Info : Audio Video Interleave
    File size : 555 MiB
    Duration : 44 min 2 s
    Overall bit rate : 1 763 kb/s
    Writing library : VirtualDub build 40716/release
    Video
    ID : 0
    Format : MPEG-4 Visual
    Format profile : Advanced Simple@L5
    Format settings : BVOP2
    Format settings, BVOP : 2
    Format settings, QPel : No
    Format settings, GMC : No warppoints
    Format settings, Matrix : Default (H.263)
    Codec ID : XVID
    Codec ID/Hint : XviD
    Duration : 44 min 2 s
    Bit rate : 1 562 kb/s
    Width : 720 pixels
    Height : 480 pixels
    Display aspect ratio : 3: 2
    Frame rate : 25.000 FPS
    Color space : YUV
    Chroma subsampling : 4: 2: 0
    Bit depth : 8 bits
    Scan type : Progressive
    Compression mode : Lossy
    Bits/(Pixel*Frame) : 0.181
    Stream size : 492 MiB (89%)
    Writing library : XviD 68
    Audio
    ID : 1
    Format : AC-3
    Format/Info : Audio Coding 3
    Commercial name : Dolby Digital
    Codec ID : 2000
    Duration : 44 min 2 s
    Bit rate mode : Constant
    Bit rate : 192 kb/s
    Channel(s) : 2 channels
    Channel layout : L R
    Sampling rate : 48.0 kHz
    Frame rate : 31.250 FPS (1536 SPF)
    Bit depth : 16 bits
    Compression mode : Lossy
    Stream size : 60.5 MiB (11%)
    Alignment : Aligned on interleaves
    Interleave, duration : 40 ms (1.00 video frame)
    Interleave, preload duration : 512 ms
    Service kind : Complete Main

    Скриншоты для ознакомления



    Все одноименные релизы в Клубе
    Время раздачи: с 07: 00 до 23: 00 (до появления первых 3-5 скачавших)

    Онлайн видео Линии судьбы (2003) DVDRip (сезон любимого сериала 1, серии 1



    Линии судьбы (2003) DVDRip (сезон 1, серии 1-24 из 24) торрент скачать бесплатно
    Рейтинг →
     (голосов: 1, оценка 4/5, голосовать можно 1 раз )

    Другие торренты по теме:

  • Surface 11: Strings of Fate / Внешние пределы 11: Линии судьбы (2017) [Ru] (1.0) Unofficial [Collectors Edition / Коллекционное издание]


    • Комментарии (0):

      Информация

      Информация

        Посетители, находящиеся в группе Гости, не могут оставлять комментарии в данной новости.

        ↓ Меню




        ↓ Опрос

        Вы добавили сайт в закладки?
        Да
        Нет


        Популярное