.
Авторизация | Регистрация
bitok.xyz
Торрент скачать бесплатно Фильмы торрент скачать Гримм / Grimm (2011-2017) HDRip (сезон 1-6, серии 1-123 из 123) SDI Media торрент скачать бесплатно


    Гримм / Grimm (2011-2017) HDRip (сезон 1-6, серии 1-123 из 123) SDI Media торрент скачать бесплатно

    Дата: 27-01-2020, 05:00 | .torrent скачали: 0

    Гримм / Grimm (2011-2017) HDRip (сезон 1-6, серии 1-123 из 123) SDI MediaПроизводство: США | GK Productions, Hazy Mills Productions, Universal Television
    Жанр: ужасы, фэнтези, драма, детектив
    Режиссер: Норберто Барба, Терренс О’Хара, Эрик Ланёвилль

    Актеры
    Дэвид Джунтоли, Битси Таллок, Сайлас Уэйр Митчелл, Расселл Хорнсби, Саша Ройз, Регги Ли, Клэр Коффи, Бри Тёрнер, Роберт Бланш, Дэмиен Пакер и др.

    Описание

    Действие происходит в современном Портленде, где детектив из отдела убийств узнаёт, что он является потомком группы охотников, известных как Гриммы, которые сражаются, чтобы сохранить человечество в безопасности от сверхъестественных существ. Узнав о своей судьбе, и том, что он является последним из своего рода, он должен защитить каждую живую душу от зловещих персонажей сборника сказок, которые проникли в реальный мир.

    Возраст: 18+ (зрителям, достигшим 18 лет)
    Продолжительность: ~00: 44: 00 серия
    Качество видео: HDRip
    Перевод: Многоголосый профессиональный -SDI Media
    Видео: XviD, 720x400 (16: 9), ~1600 kbps
    Аудио 1: АС3, 2 ch, 192 kbps — русский
    Аудио 2: АС3, 2 ch, 192 kbps — английский
    General
    Complete name : D: Grimm.HDRip.SDI.MediaGrimm.S06.HDRip.SDI.MediaGrimm.s06e13.avi
    Format : AVI
    Format/Info : Audio Video Interleave
    File size : 616 MiB
    Duration : 43 min 4 s
    Overall bit rate : 1 998 kb/s
    Writing application : VirtualDubModRus 1.5.10.2 (build 2542/release)
    Writing library : VirtualDubMod build 2542/release
    Video
    ID : 0
    Format : MPEG-4 Visual
    Format profile : Advanced Simple@L5
    Format settings : BVOP2/Custom Matrix
    Format settings, BVOP : 2
    Format settings, QPel : No
    Format settings, GMC : No warppoints
    Format settings, Matrix : Custom
    Codec ID : XVID
    Codec ID/Hint : XviD
    Duration : 43 min 4 s
    Bit rate : 1 600 kb/s
    Width : 720 pixels
    Height : 400 pixels
    Display aspect ratio : 16: 9
    Frame rate : 23.976 (24000/1001) FPS
    Original frame rate : 23.976 (23976/1000) FPS
    Color space : YUV
    Chroma subsampling : 4: 2: 0
    Bit depth : 8 bits
    Scan type : Progressive
    Compression mode : Lossy
    Bits/(Pixel*Frame) : 0.232
    Stream size : 493 MiB (80%)
    Writing library : XviD 73
    Audio #1
    ID : 1
    Format : AC-3
    Format/Info : Audio Coding 3
    Commercial name : Dolby Digital
    Codec ID : 2000
    Duration : 43 min 4 s
    Bit rate mode : Constant
    Bit rate : 192 kb/s
    Channel(s) : 2 channels
    Channel layout : L R
    Sampling rate : 48.0 kHz
    Frame rate : 31.250 FPS (1536 SPF)
    Bit depth : 16 bits
    Compression mode : Lossy
    Stream size : 59.2 MiB (10%)
    Alignment : Split accross interleaves
    Interleave, duration : 42 ms (1.00 video frame)
    Interleave, preload duratio : 500 ms
    Service kind : Complete Main
    Audio #2
    ID : 2
    Format : AC-3
    Format/Info : Audio Coding 3
    Commercial name : Dolby Digital
    Codec ID : 2000
    Duration : 43 min 4 s
    Bit rate mode : Constant
    Bit rate : 192 kb/s
    Channel(s) : 2 channels
    Channel layout : L R
    Sampling rate : 48.0 kHz
    Frame rate : 31.250 FPS (1536 SPF)
    Bit depth : 16 bits
    Compression mode : Lossy
    Stream size : 59.2 MiB (10%)
    Alignment : Split accross interleaves
    Interleave, duration : 42 ms (1.00 video frame)
    Interleave, preload duratio : 500 ms
    Service kind : Complete Main


    Онлайн видео Гримм



    Гримм / Grimm (2011-2017) HDRip (сезон 1-6, серии 1-123 из 123) SDI Media торрент скачать бесплатно
    Рейтинг →
     (голосов: 1, оценка 4/5, голосовать можно 1 раз )

    Другие торренты по теме:

  • Гримм / Grimm (2014) WEB-DL [H.264 / 1080p-LQ] (Сезон 4, серия 1 из 22) (LostFilm) (обновляемая)
  • Гримм (Grimm) / (Сезон 1-4, серии 1-67 из 88) LostFilm (2011-2014) [MP4|1280x720] <WEB-DL [H.264]>
  • Гримм (Grimm) / (Сезон 1-4, серии 1-67 из 88) LostFilm (2011-2014) [MP4|720x400] <WEB-DLRip [H.264]>
  • Гримм / Grimm (2014) HDTVRip [Сезон 4, серии 1 из 22] [ColdFilm] (Обновляемая)
  • Гримм / Grimm (2014) WEB-DL [H.264 / 720p-LQ] (сезон 4, серии 1-2 из 22) LostFilm (обновляемая) скачать через торрент бесплатно
  • Гримм / Grimm (2014) WEB-DLRip (сезон 4, серии 1-2 из 22) LostFilm (обновляемая) скачать через торрент бесплатно
  • Гримм / Grimm (2014) WEB-DLRip (сезон 4, серии 1-17 из 22) LostFilm (обновляемая) скачать через торрент бесплатно
  • Гримм / Grimm (2014) WEB-DL [H.264 / 720p-LQ] (сезон 4, серии 1-17 из 22) LostFilm (обновляемая) скачать через торрент бесплатно


    • Комментарии (0):

      Информация

      Информация

        Посетители, находящиеся в группе Гости, не могут оставлять комментарии в данной новости.

        ↓ Меню




        ↓ Опрос

        Вы добавили сайт в закладки?
        Да
        Нет


        Популярное