.
Авторизация | Регистрация
bitok.xyz
Торрент скачать бесплатно Фильмы торрент скачать Звёздный путь: Пикар / Star Trek: Picard (2020) WEB-DLRip (сезон 1, серия 1 из 10) Lostfilm (обновляемая) торрент скачать бесплатно


    Звёздный путь: Пикар / Star Trek: Picard (2020) WEB-DLRip (сезон 1, серия 1 из 10) Lostfilm (обновляемая) торрент скачать бесплатно

    Дата: 27-01-2020, 05:00 | .torrent скачали: 0

    Звёздный путь: Пикар / Star Trek: Picard (2020) WEB-DLRip (сезон 1, серия 1 из 10) Lostfilm (обновляемая)Производство: США/CBS Television Studios, Roddenberry Entertainment, Secret Hideout
    Жанр: фантастика, боевик, драма, приключения
    Режиссер: Ханель М. Кулпеппер, Джонатан Фрейкс, Акива Голдсман

    Актеры
    Патрик Стюарт, Сантьяго Кабрера, Иза Брионес, Элисон Пилл, Гарри Тредэвэй, Мишель Херд, Ребекка Висоцки, Джейми МакШейн, Орла Брэйди и др.

    Описание

    Спустя 15 лет жизнь некогда бороздившего космические просторы Жана-Люка Пикара, кажется, стала совсем спокойной. Однако вскоре ему придётся покинуть насиженное место и отправиться навстречу очередным приключениям.

    Дата мировой премьеры: 13 января 2020
    Релиз от: OlLanDGroup
    Продолжительность: ~00: 45: 00 серия
    Качество видео: WEB-DLRip
    Перевод: Многоголосый профессиональный (Lostfilm )
    Субтитры: Отсутствуют
    Видео: Xvid, 720x304, ~1700 Kbps
    Аудио 1: AC3, 2 ch, 192 Kbps - русский
    Аудио 2: AC3, 2 ch, 192 Kbps - английский
    General
    Complete name : D: OlLanDGroupStar.Trek.Picard.S01.WEB-DLRip.Lostfilm.OlLanDGroupStar.Trek.Picard.S01E01.WEB-DLRip.Lostfilm.OlLanDGroup.avi
    Format : AVI
    Format/Info : Audio Video Interleave
    File size : 692 MiB
    Duration : 46 min 6 s
    Overall bit rate : 2 097 kb/s
    Writing application : VirtualDubMod 1.5.10.2 (build 2540/release)
    Writing library : VirtualDubMod build 2540/release
    Video
    ID : 0
    Format : MPEG-4 Visual
    Format profile : Advanced Simple@L5
    Format settings : BVOP1
    Format settings, BVOP : 1
    Format settings, QPel : No
    Format settings, GMC : No warppoints
    Format settings, Matrix : Default (MPEG)
    Codec ID : XVID
    Codec ID/Hint : XviD
    Duration : 46 min 6 s
    Bit rate : 1 699 kb/s
    Width : 720 pixels
    Height : 304 pixels
    Display aspect ratio : 2.35: 1
    Frame rate : 24.000 FPS
    Color space : YUV
    Chroma subsampling : 4: 2: 0
    Bit depth : 8 bits
    Scan type : Progressive
    Compression mode : Lossy
    Bits/(Pixel*Frame) : 0.323
    Stream size : 560 MiB (81%)
    Writing library : XviD 73
    Audio #1
    ID : 1
    Format : AC-3
    Format/Info : Audio Coding 3
    Commercial name : Dolby Digital
    Codec ID : 2000
    Duration : 46 min 6 s
    Bit rate mode : Constant
    Bit rate : 192 kb/s
    Channel(s) : 2 channels
    Channel layout : L R
    Sampling rate : 48.0 kHz
    Frame rate : 31.250 FPS (1536 SPF)
    Bit depth : 16 bits
    Compression mode : Lossy
    Stream size : 63.3 MiB (9%)
    Alignment : Split accross interleaves
    Interleave, duration : 42 ms (1.00 video frame)
    Interleave, preload duration : 500 ms
    Service kind : Complete Main
    Audio #2
    ID : 2
    Format : AC-3
    Format/Info : Audio Coding 3
    Commercial name : Dolby Digital
    Codec ID : 2000
    Duration : 46 min 6 s
    Bit rate mode : Constant
    Bit rate : 192 kb/s
    Channel(s) : 2 channels
    Channel layout : L R
    Sampling rate : 48.0 kHz
    Frame rate : 31.250 FPS (1536 SPF)
    Bit depth : 16 bits
    Compression mode : Lossy
    Stream size : 63.3 MiB (9%)
    Alignment : Split accross interleaves
    Interleave, duration : 42 ms (1.00 video frame)
    Interleave, preload duration : 500 ms
    Service kind : Complete Main

    Скриншоты для ознакомления



    Все одноименные релизы в Клубе
    Время раздачи: 24/7 (круглосуточно) (до появления первых 3-5 скачавших)

    Онлайн видео Звёздный путь: Пикар



    Звёздный путь: Пикар / Star Trek: Picard (2020) WEB-DLRip (сезон 1, серия 1 из 10) Lostfilm (обновляемая) торрент скачать бесплатно
    Рейтинг →
     (голосов: 1, оценка 3/5, голосовать можно 1 раз )

    Другие торренты по теме:

  • Звёздный Путь: Следующее Поколение / Star Trek: The Next Generation (1987) HDRip [H.264] (сезон 1, серии 1-26 из 26) (AXN Sci-fi) [MP4|768x576]
  • Звёздный Путь: Следующее Поколение / Star Trek: The Next Generation (1988-1989) HDRip [H.264] (сезон 2, серии 1-22 из 22) (AXN Sci-fi) [MP4|768x576]
  • Звёздный Путь: Следующее Поколение / Star Trek: The Next Generation (1989-1990) HDRip [H.264] (сезон 3, серии 1-26 из 26) (AXN Sci-fi) [MP4|768x576]
  • Звёздный Путь: Следующее Поколение / Star Trek: The Next Generation (1990-1991) HDRip [H.264] (сезон 4, серии 1-26 из 26) (AXN Sci-fi) [MP4|768x576]
  • Звёздный Путь: Следующее Поколение / Star Trek: The Next Generation (1991-1992) HDRip [H.264] (сезон 5, серии 1-26 из 26) (AXN Sci-fi) [MP4|768x576]
  • Звёздный Путь: Следующее Поколение / Star Trek: The Next Generation (1992-1993) HDRip [H.264] (сезон 6, серии 1-26 из 26) (AXN Sci-fi) [MP4|768x576]
  • Звёздный Путь: Следующее Поколение / Star Trek: The Next Generation (1993) HDRip [H.264] (сезон 7, серии 1-26 из 26) (AXN Sci-fi) [MP4|768x576]
  • Звёздный путь: Дискавери / Star Trek: Discovery (2017) WEBRip [H.264 / 1080p-LQ] (сезон 1) [Трейлер]


    • Комментарии (0):

      Информация

      Информация

        Посетители, находящиеся в группе Гости, не могут оставлять комментарии в данной новости.

        ↓ Меню




        ↓ Опрос

        Вы добавили сайт в закладки?
        Да
        Нет


        Популярное