.
Авторизация | Регистрация
bitok.xyz
Торрент скачать бесплатно Фильмы торрент скачать Половое воспитание / Sex Education (2020) WEBRip (сезон 2, серии 1-2 из 8) LostFilm (обновляемая) торрент скачать бесплатно


    Половое воспитание / Sex Education (2020) WEBRip (сезон 2, серии 1-2 из 8) LostFilm (обновляемая) торрент скачать бесплатно

    Дата: 27-01-2020, 05:00 | .torrent скачали: 0

    Половое воспитание / Sex Education (2020) WEBRip (сезон 2, серии 1-2 из 8) LostFilm (обновляемая)Производство: США, Великобритания
    Жанр: драма, комедия
    Режиссер: Кейт Херрон, Бен Тэйлор, Софи Гудхарт

    Актеры
    Эйса Баттерфилд, Джиллиан Андерсон, Ншути Гатва, Эмма Маккей, Коннор Суинделлс, Кедар Уильямс-Стирлинг, Алистэр Петри, Эйми Лу Вуд, Симон Эшли, Мими Кин и др.

    Описание

    Продолжение популярной британской молодежной комедии.
    В новом сезон любимого сериалае появляются темнокожая талантливая ученица Вив, которой катастрофически не везет в любви, парень-колясочник Айзек и француз Рахим, он производит настоящий фурор в школе.

    Продолжительность: ~00: 55: 00 серия
    Качество видео: WEBRip
    Перевод: Многоголосый, профессиональный -LostFilm
    Субтитры: русские, английские
    Видео: XviD, 720x360, ~1469 kbps
    Аудио 1: MP3, 2 ch, 128 kbps — русский
    Аудио 2: MP3, 2 ch, 128 kbps — английский
    Общее
    Полное имя : D: Половое воспитание (сезон любимого сериала 2) Sex Education (2020) WEBRip - LostFilmSex.Education.S02E01.WEBRip.Rus.Eng.DV.LostFilm.avi
    Формат : AVI
    Формат/Информация : Audio Video Interleave
    Размер файла : 638 Мбайт
    Продолжительность : 51 м. 16 с.
    Общий поток : 1739 Кбит/сек
    Название фильма : Sex.Education.S02E01.WEBRip.Rus.Eng.DV.LostFilm/NNM-Club
    Программа кодирования : VirtualDubModRus 1.5.10.2 (build 2542/release)
    Библиотека кодирования : VirtualDubMod build 2542/release
    Видео
    Идентификатор : 0
    Формат : MPEG-4 Visual
    Профиль формата : Advanced Simple@L5
    Настройки формата : BVOP2
    Параметр BVOP формата : 2
    Параметр QPel формата : Нет
    Параметр GMC формата : Без точки перехода
    Параметр матрицы формата : Default (H.263)
    Идентификатор кодека : XVID
    Идентификатор кодека/Подсказка : XviD
    Продолжительность : 51 м. 16 с.
    Битрейт : 1469 Кбит/сек
    Ширина : 720 пикселей
    Высота : 360 пикселей
    Соотношение сторон : 2, 000
    Частота кадров : 25, 000 кадров/сек
    Цветовое пространство : YUV
    Субдискретизация насыщенности : 4: 2: 0
    Битовая глубина : 8 бит
    Тип развёртки : Прогрессивная
    Метод сжатия : С потерями
    Бит/(Пиксели*Кадры) : 0.227
    Размер потока : 539 Мбайт (84%)
    Заголовок : Rip from DriverV for NNM-Club
    Библиотека кодирования : XviD 64
    Аудио #1
    Идентификатор : 1
    Формат : MPEG Audio
    Версия формата : Version 1
    Профиль формата : Layer 3
    Настройки формата : Joint stereo/MS Stereo
    Идентификатор кодека : 55
    Идентификатор кодека/Подсказка : MP3
    Продолжительность : 51 м. 16 с.
    Вид битрейта : Постоянный
    Битрейт : 128 Кбит/сек
    Каналы : 2 канала
    Частота : 48, 0 КГц
    Метод сжатия : С потерями
    Размер потока : 46, 9 Мбайт (7%)
    Выравнивание : Соединение по промежуткам
    Продолжительность промежутка : 40 мс. (1, 00 видеокадр)
    Время предзагрузки промежутка : 504 мс.
    Аудио #2
    Идентификатор : 2
    Формат : MPEG Audio
    Версия формата : Version 1
    Профиль формата : Layer 3
    Настройки формата : Joint stereo/MS Stereo
    Идентификатор кодека : 55
    Идентификатор кодека/Подсказка : MP3
    Продолжительность : 51 м. 16 с.
    Вид битрейта : Постоянный
    Битрейт : 128 Кбит/сек
    Каналы : 2 канала
    Частота : 48, 0 КГц
    Метод сжатия : С потерями
    Размер потока : 46, 9 Мбайт (7%)
    Выравнивание : Соединение по промежуткам
    Продолжительность промежутка : 40 мс. (1, 00 видеокадр)
    Время предзагрузки промежутка : 504 мс.


    Онлайн видео Половое воспитание



    Половое воспитание / Sex Education (2020) WEBRip (сезон 2, серии 1-2 из 8) LostFilm (обновляемая) торрент скачать бесплатно
    Рейтинг →
     (голосов: 1, оценка 5/5, голосовать можно 1 раз )

    Другие торренты по теме:

  • Половое воспитание / Sex Ed (2014) WEB-DLRip [Line] скачать через торрент бесплатно
  • Половое воспитание / Sex Ed (2014) WEB-DLRip
  • Половое воспитание / Всё о сексе / Sex Education (2019) WEBRip [H.264 / 1080p-LQ] (сезон 1, серии 1-8 из 8) BTI Studio
  • Половое воспитание / Всё о сексе / Sex Education (2019) WEBRip [H.264 / 720p-LQ] (сезон 1, серии 1-8 из 8) BTI Studio
  • Половое воспитание / Всё о сексе / Sex Education (2019) WEBRip [H.264 / 1080p-LQ] (сезон 1, серии 1-2 из 8) TVShows (обновляемая)
  • Половое воспитание / Всё о сексе / Sex Education (2019) WEB-DL [H.264 / 1080p-LQ] (сезон 1, серии 1-6 из 8) LostFilm (обновляемая)
  • Половое воспитание / Всё о сексе / Sex Education (2019) WEB-DL [H.264 / 1080p-LQ] (сезон 1, серии 1-8 из 8) Baibako [PR] [AD]
  • Л. И. Санюкевич | Половое воспитание детей и подростков (1979) [PDF]


    • Комментарии (0):

      Информация

      Информация

        Посетители, находящиеся в группе Гости, не могут оставлять комментарии в данной новости.

        ↓ Меню




        ↓ Опрос

        Вы добавили сайт в закладки?
        Да
        Нет


        Популярное