.
Авторизация | Регистрация
bitok.xyz
Торрент скачать бесплатно Фильмы торрент скачать Новый Папа / The New Pope (2020) WEB-DLRip (сезон 1, серии 1-6 из 10) Кравец (обновляемая) торрент скачать бесплатно


    Новый Папа / The New Pope (2020) WEB-DLRip (сезон 1, серии 1-6 из 10) Кравец (обновляемая) торрент скачать бесплатно

    Дата: 27-01-2020, 05:00 | .torrent скачали: 2

    Новый Папа / The New Pope (2020) WEB-DLRip (сезон 1, серии 1-6 из 10) Кравец (обновляемая)Производство: Италия, Франция, Испания, США, Великобритания/Wildside, Haut et Court, Mediapro
    Жанр: Драма
    Режиссер: Паоло Соррентино

    Актеры
    Джуд Лоу, Джон Малкович, Сильвио Орландо, Сесиль Де Франс, Хавьер Камара, Людивин Санье, Маурицио Ломбарди, Марк Иванир, Генри Гудман, Массимо Гини и др.

    Описание

    Ленни Белардо впал в кому, так что кардиналам ничего не остаётся, кроме как выбрать нового понтифика, им становится Иоанн Павел III. Он уже готов повести католическую церковь в нужном, как видится кардиналам, направлении, когда Ленни приходит в себя, и миллиарды католиков оказываются в непростой ситуации.

    Дата мировой премьеры: 10 января 2020
    Релиз от: OlLanDGroup
    Продолжительность: ~01: 00: 00 серия
    Качество видео: WEB-DLRip
    Перевод: Дублированный (Кравец-Рекордз )
    Видео: Xvid, 720x400, ~1700 Kbps
    Аудио 1: AC3, 2 ch, 192 Kbps - русский
    Аудио 2: AC3, 2 ch, 192 Kbps - английский
    General
    Complete name : C: UsersSkandarVideosThe.New.Pope.S01.WEB-DLRip.Kravec.Rus.Eng.OlLanDGroupThe.New.Pope.S01.E01.WEB-DLRip.Kravec.Rus.Eng.OlLanDGroup.avi
    Format : AVI
    Format/Info : Audio Video Interleave
    File size : 879 MiB
    Duration : 58 min 35 s
    Overall bit rate : 2 098 kb/s
    Writing application : VirtualDubMod 1.5.10.2 (build 2540/release)
    Writing library : VirtualDubMod build 2540/release
    Video
    ID : 0
    Format : MPEG-4 Visual
    Format profile : Advanced Simple@L5
    Format settings : BVOP1
    Format settings, BVOP : 1
    Format settings, QPel : No
    Format settings, GMC : No warppoints
    Format settings, Matrix : Default (MPEG)
    Codec ID : XVID
    Codec ID/Hint : XviD
    Duration : 58 min 35 s
    Bit rate : 1 700 kb/s
    Width : 720 pixels
    Height : 400 pixels
    Display aspect ratio : 16: 9
    Frame rate : 25.000 FPS
    Color space : YUV
    Chroma subsampling : 4: 2: 0
    Bit depth : 8 bits
    Scan type : Progressive
    Compression mode : Lossy
    Bits/(Pixel*Frame) : 0.236
    Stream size : 712 MiB (81%)
    Writing library : XviD 73
    Audio #1
    ID : 1
    Format : AC-3
    Format/Info : Audio Coding 3
    Commercial name : Dolby Digital
    Codec ID : 2000
    Duration : 58 min 35 s
    Bit rate mode : Constant
    Bit rate : 192 kb/s
    Channel(s) : 2 channels
    Channel layout : L R
    Sampling rate : 48.0 kHz
    Frame rate : 31.250 FPS (1536 SPF)
    Bit depth : 16 bits
    Compression mode : Lossy
    Stream size : 80.5 MiB (9%)
    Alignment : Split accross interleaves
    Interleave, duration : 40 ms (1.00 video frame)
    Interleave, preload duration : 500 ms
    Service kind : Complete Main
    Audio #2
    ID : 2
    Format : AC-3
    Format/Info : Audio Coding 3
    Commercial name : Dolby Digital
    Codec ID : 2000
    Duration : 58 min 35 s
    Bit rate mode : Constant
    Bit rate : 192 kb/s
    Channel(s) : 2 channels
    Channel layout : L R
    Sampling rate : 48.0 kHz
    Frame rate : 31.250 FPS (1536 SPF)
    Bit depth : 16 bits
    Compression mode : Lossy
    Stream size : 80.5 MiB (9%)
    Alignment : Split accross interleaves
    Interleave, duration : 40 ms (1.00 video frame)
    Interleave, preload duration : 500 ms
    Service kind : Complete Main

    Скриншоты для ознакомления



    Все одноименные релизы в Клубе
    Время раздачи: 24/7 (круглосуточно) (до появления первых 3-5 скачавших)

    Онлайн видео Новый Папа



    Новый Папа / The New Pope (2020) WEB-DLRip (сезон 1, серии 1-6 из 10) Кравец (обновляемая) торрент скачать бесплатно
    Рейтинг →
     (голосов: 1, оценка 5/5, голосовать можно 1 раз )

    Другие торренты по теме:

  • Новый Папа / The New Pope (2020) WEBRip [H.264 / 1080p-LQ] (сезон 1, серии 1-2 из 10) (обновляемая) [AD] HDRezka Studio
  • Новый Папа / The New Pope (2020) WEB-DLRip (сезон 1, серии 1 из 10) LostFilm (обновляемая)
  • Новый Папа / The New Pope (2020) HDTV [H.264 / 1080i-LQ] (сезон 1, серии 1-4 из 10) Greb&CGC (обновляемая)
  • Здравствуй, папа, Новый год / Daddys Home (2015) CamRip
  • Здравствуй, папа, Новый год / Daddys Home (2015) BDRemux [H.264 / 1080p] [EN / EN, Fr, Sp, Po Sub]
  • Здравствуй, папа, Новый год / Daddys Home (2015) HDRip [Line]
  • Здравствуй, папа, Новый год / Daddys Home (2015) BDRip [H.264] [Line]
  • Здравствуй, папа, Новый год / Daddys Home (2015) BDRip [H.264 / 1080p] [Line]


    • Комментарии (0):

      Информация

      Информация

        Посетители, находящиеся в группе Гости, не могут оставлять комментарии в данной новости.

        ↓ Меню




        ↓ Опрос

        Вы добавили сайт в закладки?
        Да
        Нет


        Популярное