.
Авторизация | Регистрация
bitok.xyz
Торрент скачать бесплатно Фильмы торрент скачать Джамп стрит, 21 / 21 Jump Street (1989) WEBRip [H.264] (сезон 4, серии 1-26 из 26) HDRezka Studio торрент скачать бесплатно


    Джамп стрит, 21 / 21 Jump Street (1989) WEBRip [H.264] (сезон 4, серии 1-26 из 26) HDRezka Studio торрент скачать бесплатно

    Дата: 27-01-2020, 05:00 | .torrent скачали: 0

    Джамп стрит, 21 / 21 Jump Street (1989) WEBRip [H.264] (сезон 4, серии 1-26 из 26) HDRezka StudioПроизводство: США/20th Century Fox Television
    Жанр: драма, криминал, детектив
    Режиссер: Ким Мэннерс, Билл Коркоран, Джеймс Уитмор мл

    Актеры
    Холли Робинсон Пит, Стивен Уильямс, Питер ДеЛуис, Джонни Депп, Дастин Нуен, Сэл Дженко, Майкл Бендетти, Ричард Греко, Майкл ДеЛуис, Марк Вассерман

    Описание

    21 Jump Street — команда из 4 полицейских офицеров под началом капитана Фуллера. Молодые офицеры полиции работают под прикрытием над раскрытием дел в школах. Их задача — остановить преступность среди молодежи.

    Продолжительность: ~00: 45: 00 серия
    Качество видео: WEBRip
    Перевод: Многоголосый профессиональный(HDRezka Studio)
    Видео: AVC/H.264, 576x432 (4: 3), ~1290 Kbps
    Аудио: AC3, 2 ch, 192 Kbps
    Общее
    Уникальный идентификатор : 205071853288948996951321670249535618491 (0x9A4766FD2249744FB0101A36AD5DBDBB)
    Полное имя : G: 21.Jump.Street.1989.S0421.Jump.Street.S04E01.mkv
    Формат : Matroska
    Версия формата : Version 4
    Размер файла : 495 Мбайт
    Продолжительность : 46 м. 29 с.
    Режим общего битрейта : Переменный
    Общий поток : 1488 Кбит/сек
    Дата кодирования : UTC 2019-08-07 07: 54: 54
    Программа кодирования : mkvmerge v28.2.0 (\'The Awakening\') 64-bit
    Библиотека кодирования : libebml v1.3.6 + libmatroska v1.4.9
    Видео
    Идентификатор : 1
    Формат : AVC
    Формат/Информация : Advanced Video Codec
    Профиль формата : High@L4.1
    Настройки формата : CABAC/1 Ref Frames
    Параметр CABAC формата : Да
    Параметр RefFrames формата : 1 кадр
    Идентификатор кодека : V_MPEG4/ISO/AVC
    Продолжительность : 46 м. 26 с.
    Вид битрейта : Переменный
    Битрейт : 1296 Кбит/сек
    Максимальный битрейт : 2000 Кбит/сек
    Ширина : 576 пикселей
    Высота : 432 пикселя
    Соотношение сторон : 4: 3
    Режим частоты кадров : Постоянный
    Частота кадров : 23, 976 (24000/1001) кадра/сек
    Цветовое пространство : YUV
    Субдискретизация насыщенности : 4: 2: 0
    Битовая глубина : 8 бит
    Тип развёртки : Прогрессивная
    Бит/(Пиксели*Кадры) : 0.217
    Размер потока : 430 Мбайт (87%)
    Default : Да
    Forced : Нет
    Аудио
    Идентификатор : 2
    Формат : AC-3
    Формат/Информация : Audio Coding 3
    Коммерческое название : Dolby Digital
    Идентификатор кодека : A_AC3
    Продолжительность : 46 м. 29 с.
    Вид битрейта : Постоянный
    Битрейт : 192 Кбит/сек
    Каналы : 2 канала
    ChannelLayout : L R
    Частота : 48, 0 КГц
    Частота кадров : 31, 250 кадров/сек (1536 SPF)
    Метод сжатия : С потерями
    Размер потока : 63, 8 Мбайт (13%)
    Язык : Russian
    ServiceKind/String : Complete Main
    Default : Да
    Forced : Нет


    Онлайн видео Джамп стрит, 21



    Джамп стрит, 21 / 21 Jump Street (1989) WEBRip [H.264] (сезон 4, серии 1-26 из 26) HDRezka Studio торрент скачать бесплатно
    Рейтинг →
     (голосов: 1, оценка 5/5, голосовать можно 1 раз )

    Другие торренты по теме:

  • Джамп стрит, 21 / 21 Jump Street (1988) WEBRip [H.264] (сезон 3, серии 1-20 из 20) HDRezka Studio
  • Джамп стрит, 21 / 21 Jump Street (1988) WEBRip [H.264] (сезон 2, серии 1-22 из 22) HDRezka Studio
  • Джамп стрит, 21 / 21 Jump Street (1987) WEBRip [H.264] (сезон 1, серии 1-13 из 13) HDRezka Studio
  • Джамп стрит, 21 / 21 Jump Street (1990) WEBRip [H.264] (сезон 5, серии 1-23 из 23) HDRezka Studio


    • Комментарии (0):

      Информация

      Информация

        Посетители, находящиеся в группе Гости, не могут оставлять комментарии в данной новости.

        ↓ Меню




        ↓ Опрос

        Вы добавили сайт в закладки?
        Да
        Нет


        Популярное