.
Авторизация | Регистрация
bitok.xyz
Торрент скачать бесплатно Фильмы торрент скачать Проект "Синяя книга" / Проект засекречен / Project Blue Book (2020) WEB-DLRip (сезон 2, серии 1 из 10) LostFilm (обновляемая) торрент скачать бесплатно


    Проект "Синяя книга" / Проект засекречен / Project Blue Book (2020) WEB-DLRip (сезон 2, серии 1 из 10) LostFilm (обновляемая) торрент скачать бесплатно

    Дата: 27-01-2020, 05:00 | .torrent скачали: 1

    Проект Синяя книга / Проект засекречен / Project Blue Book (2020) WEB-DLRip (сезон 2, серии 1 из 10) LostFilm (обновляемая)Производство: США, Канада/IMN Creative, A+E Studios, Compari Entertainment
    Жанр: фантастика, триллер, драма, детектив
    Режиссер: Норма Бэйли, Томас Картер, Алекс Грейвз

    Актеры
    Эйдан Гиллен, Майкл Маларки, Лаура Меннелл, Ксения Соло, Нил МакДонаф, Майкл Харни, Николас Холмс, Джилл Моррисон, Иэн Трейси, Роберт Джон Бёрк и др.

    Описание

    Продолжение сериала снятого в жанре научной фантастики и основанного на данных о реальном проекте Военно-воздушных сил США Синяя книга.
    Пятидесятые годы прошлого века. Астроном Дж. Аллен Хинек и капитан ВВС США Майкл Квинн разбираются со свидетельствами появления НЛО. В ходе расследования они натыкаются на правительственный заговор, скрывающий от населения правду.

    Продолжительность: ~00: 45: 00 серия
    Качество видео: WEB-DLRip
    Перевод: Многоголосый, профессиональный -LostFilm
    Видео: XviD, 720x352, ~1500 kbps
    Аудио 1: MP3, 2 ch, 128 kbps — русский
    Аудио 2: MP3, 2 ch, 128 kbps — английский
    Общее
    Полное имя : D: Проект засекречен (сезон любимого сериала 2) Project Blue Book (2020) WEB-DLRip - LostFilmProject.Blue.Book.S02E01.WEB-DLRip.Rus.Eng.DV.LostFilm.avi
    Формат : AVI
    Формат/Информация : Audio Video Interleave
    Размер файла : 577 Мбайт
    Продолжительность : 45 м. 32 с.
    Общий поток : 1770 Кбит/сек
    Название фильма : Project.Blue.Book.S02E01.WEB-DLRip.Rus.Eng.DV.LostFilm/NNM-Club
    Программа кодирования : VirtualDubModRus 1.5.10.2 (build 2542/release)
    Библиотека кодирования : VirtualDubMod build 2542/release
    Видео
    Идентификатор : 0
    Формат : MPEG-4 Visual
    Профиль формата : Advanced Simple@L5
    Настройки формата : BVOP2
    Параметр BVOP формата : 2
    Параметр QPel формата : Нет
    Параметр GMC формата : Без точки перехода
    Параметр матрицы формата : Default (H.263)
    Идентификатор кодека : XVID
    Идентификатор кодека/Подсказка : XviD
    Продолжительность : 45 м. 32 с.
    Битрейт : 1500 Кбит/сек
    Ширина : 720 пикселей
    Высота : 352 пикселя
    Соотношение сторон : 2, 045
    Частота кадров : 23, 976 (24000/1001) кадра/сек
    Цветовое пространство : YUV
    Субдискретизация насыщенности : 4: 2: 0
    Битовая глубина : 8 бит
    Тип развёртки : Прогрессивная
    Метод сжатия : С потерями
    Бит/(Пиксели*Кадры) : 0.247
    Размер потока : 489 Мбайт (85%)
    Заголовок : Rip from DriverV for NNM-Club
    Библиотека кодирования : XviD 64
    Аудио #1
    Идентификатор : 1
    Формат : MPEG Audio
    Версия формата : Version 1
    Профиль формата : Layer 3
    Настройки формата : Joint stereo/MS Stereo
    Идентификатор кодека : 55
    Идентификатор кодека/Подсказка : MP3
    Продолжительность : 45 м. 32 с.
    Вид битрейта : Постоянный
    Битрейт : 128 Кбит/сек
    Каналы : 2 канала
    Частота : 48, 0 КГц
    Метод сжатия : С потерями
    Размер потока : 41, 7 Мбайт (7%)
    Выравнивание : Соединение по промежуткам
    Продолжительность промежутка : 42 мс. (1, 00 видеокадр)
    Время предзагрузки промежутка : 504 мс.
    Аудио #2
    Идентификатор : 2
    Формат : MPEG Audio
    Версия формата : Version 1
    Профиль формата : Layer 3
    Настройки формата : Joint stereo/MS Stereo
    Идентификатор кодека : 55
    Идентификатор кодека/Подсказка : MP3
    Продолжительность : 45 м. 32 с.
    Вид битрейта : Постоянный
    Битрейт : 128 Кбит/сек
    Каналы : 2 канала
    Частота : 48, 0 КГц
    Метод сжатия : С потерями
    Размер потока : 41, 7 Мбайт (7%)
    Выравнивание : Соединение по промежуткам
    Продолжительность промежутка : 42 мс. (1, 00 видеокадр)
    Время предзагрузки промежутка : 504 мс.


    Проект "Синяя книга" / Проект засекречен / Project Blue Book (2020) WEB-DLRip (сезон 2, серии 1 из 10) LostFilm (обновляемая) торрент скачать бесплатно
    Рейтинг →
     (голосов: 1, оценка 5/5, голосовать можно 1 раз )

    Другие торренты по теме:

  • Проект засекречен / Проект "Синяя книга" / Project Blue Book (2019) WEB-DLRip (сезон 1, серии 1 из 10) Кириллица (обновляемая)
  • Проект засекречен / Проект "Синяя книга" / Project Blue Book (2019) WEBRip (сезон 1, серии 1 из 10) BaibaKo (обновляемая) [AD]
  • Проект засекречен / Проект "Синяя книга" / Project Blue Book (2019) WEBRip [H.264 / 1080p-LQ] (сезон 1, серии 1 из 10) OMSKBIRD (обновляемая) [AD]
  • Проект засекречен / Проект "Синяя книга" / Project Blue Book (2019) WEB-DL [H.264 / 1080p-LQ] (сезон 1, серии 1 из 10) Кириллица (обновляемая)
  • Проект засекречен / Проект "Синяя книга" / Project Blue Book (2019) WEB-DLRip (сезон 1, серии 1 из 10) LostFilm (обновляемая)
  • Проект засекречен / Проект "Синяя книга" / Project Blue Book (2019) WEBRip [H.264 / 1080p-LQ] (сезон 1, серии 1 из 10) TVShows (обновляемая)
  • Проект засекречен / Проект "Синяя книга" / Project Blue Book (2019) WEB-DL [H.264 / 1080p-LQ] (сезон 1, серии 1-3 из 10) LostFilm (обновляемая)
  • Проект засекречен / Проект "Синяя книга" / Project Blue Book (2019) WEBRip [H.265 / 1080p-LQ] [HDR] (сезон 1, серии 1-6 из 10) BaibaKo [AD] (обновляемая)


    • Комментарии (0):

      Информация

      Информация

        Посетители, находящиеся в группе Гости, не могут оставлять комментарии в данной новости.

        ↓ Меню




        ↓ Опрос

        Вы добавили сайт в закладки?
        Да
        Нет


        Популярное