.
Авторизация | Регистрация
bitok.xyz
Торрент скачать бесплатно Фильмы торрент скачать Леденящие душу приключения Сабрины / Chilling Adventures of Sabrina (2020) WEB-DLRip [H.264 / 1080p-LQ] (сезон 3, серии 1-8 из 8) Пифагор торрент скачать бесплатно


    Леденящие душу приключения Сабрины / Chilling Adventures of Sabrina (2020) WEB-DLRip [H.264 / 1080p-LQ] (сезон 3, серии 1-8 из 8) Пифагор торрент скачать бесплатно

    Дата: 27-01-2020, 05:00 | .torrent скачали: 0

    Леденящие душу приключения Сабрины / Chilling Adventures of Sabrina (2020) WEB-DLRip [H.264 / 1080p-LQ] (сезон 3, серии 1-8 из 8) ПифагорПроизводство: США/Archie Comics Publications, Warner Bros. Television
    Жанр: ужасы, фэнтези, триллер, драма, детектив
    Режиссер: Роб Шейденгланц, Алекс Пиллаи, Мэгги Кили

    Актеры
    Кирнан Шипка, Росс Линч, Люси Дэвис, Миранда Отто, Мишель Гомес, Чэнс Пердомо, Жасмин Сабино, Лаклан Уотсон, Тати Габриэль, Аделин Рудольф, Ричард Койл

    Описание

    Ведьма Сабрина пытается найти истинную себя между натурами смертной и ведьмы, при этом ей придётся противостоять злым силам, которые угрожают ей, её семье и всему миру людей

    Релиз от: TeamHD
    Продолжительность: ~ 01: 00: 00 серия
    Качество видео: WEB-DLRip
    Перевод: Дублированный (Пифагор)
    Субтитры: русские (Forced, Full), румынские, английские (Full, SDH)
    Видео: AVC/H.264, 1920x1080 (16: 9), ~3650 Kbps
    Аудио: E-AC3, 6 ch, 640 Kbps - русский
    Аудио: E-AC3, 6 ch, 640 Kbps - английский
    Общее
    Уникальный идентификатор : 278695796772941048471193879215922410032 (0xD1AADBA860A37D70A57C2ACAC65EF230)
    Полное имя : /Volumes/HDD/Movies/NNMC/Chilling.Adventures.of.Sabrina.S02.NF.1080p.WEB-DL.Rus.Eng-NTG-AMRAP_THD/Chilling.Adventures.of.Sabrina.S02E01.NF.1080p.WEB-DL.Rus.Eng-NTG_THD.mkv
    Формат : Matroska
    Версия формата : Version 4
    Размер файла : 2, 06 Гбайт
    Продолжительность : 1 ч. 0 м.
    Режим общего битрейта : Переменный
    Общий поток : 4853 Кбит/сек
    Название фильма : Chilling Adventures of Sabrina (2020) - Release for TeamHD
    Дата кодирования : UTC 2020-01-24 11: 18: 23
    Программа кодирования : mkvmerge v40.0.0 (\'Old Town Road + Pony\') 64-bit
    Библиотека кодирования : libebml v1.3.9 + libmatroska v1.5.2
    Видео
    Идентификатор : 1
    Формат : AVC
    Формат/Информация : Advanced Video Codec
    Профиль формата : Main@L4
    Настройки формата : CABAC/3 Ref Frames
    Параметр CABAC формата : Да
    Параметр ReFrames формата : 3 кадра
    Идентификатор кодека : V_MPEG4/ISO/AVC
    Продолжительность : 1 ч. 0 м.
    Вид битрейта : Переменный
    Битрейт : 3650 Кбит/сек
    Максимальный битрейт : 5475 Кбит/сек
    Ширина : 1920 пикселей
    Высота : 1080 пикселей
    Соотношение сторон : 16: 9
    Режим частоты кадров : Постоянный
    Частота кадров : 23, 976 (24000/1001) кадра/сек
    Цветовое пространство : YUV
    Субдискретизация насыщенности : 4: 2: 0
    Битовая глубина : 8 бит
    Тип развёртки : Прогрессивная
    Бит/(Пиксели*Кадры) : 0.073
    Размер потока : 1, 52 Гбайт (74%)
    Заголовок : NTG
    Библиотека кодирования : x264 core 148 r2715 7e75228
    Настройки программы : cabac=1/ref=3/deblock=1: 0: 0/analyse=0x1: 0x111/me=umh/subme=10/psy=1/psy_rd=1.00: 0.00/mixed_ref=1/me_range=24/chroma_me=1/trellis=2/8x8dct=0/cqm=0/deadzone=21, 11/fast_pskip=1/chroma_qp_offset=-2/threads=8/lookahead_threads=1/sliced_threads=0/nr=0/decimate=1/interlaced=0/bluray_compat=0/stitchable=1/constrained_intra=0/bframes=2/b_pyramid=0/b_adapt=2/b_bias=0/direct=3/weightb=1/open_gop=0/weightp=2/keyint=250/keyint_min=23/scenecut=0/intra_refresh=0/rc_lookahead=48/rc=2pass/mbtree=1/bitrate=3650/ratetol=1.0/qcomp=0.50/qpmin=6/qpmax=51/qpstep=4/cplxblur=20.0/qblur=0.5/vbv_maxrate=5475/vbv_bufsize=7300/nal_hrd=vbr/filler=0/ip_ratio=1.40/aq=1: 1.00
    Default : Да
    Forced : Нет
    Аудио #1
    Идентификатор : 2
    Формат : E-AC-3
    Формат/Информация : Enhanced AC-3
    Коммерческое название : Dolby Digital Plus
    Идентификатор кодека : A_EAC3
    Продолжительность : 1 ч. 0 м.
    Вид битрейта : Постоянный
    Битрейт : 640 Кбит/сек
    Каналы : 6 каналов
    Channel layout : L R C LFE Ls Rs
    Частота : 48, 0 КГц
    Частота кадров : 31, 250 кадров/сек (1536 SPF)
    Метод сжатия : С потерями
    Размер потока : 279 Мбайт (13%)
    Язык : Russian
    Service kind : Complete Main
    Default : Да
    Forced : Нет
    Аудио #2
    Идентификатор : 3
    Формат : E-AC-3
    Формат/Информация : Enhanced AC-3
    Коммерческое название : Dolby Digital Plus
    Идентификатор кодека : A_EAC3
    Продолжительность : 1 ч. 0 м.
    Вид битрейта : Постоянный
    Битрейт : 640 Кбит/сек
    Каналы : 6 каналов
    Channel layout : L R C LFE Ls Rs
    Частота : 48, 0 КГц
    Частота кадров : 31, 250 кадров/сек (1536 SPF)
    Метод сжатия : С потерями
    Размер потока : 279 Мбайт (13%)
    Язык : English
    Service kind : Complete Main
    Default : Нет
    Forced : Нет
    Текст #1
    Идентификатор : 4
    Формат : UTF-8
    Идентификатор кодека : S_TEXT/UTF8
    Идентификатор кодека/Информация : UTF-8 Plain Text
    Продолжительность : 59 м. 10 с.
    Битрейт : 1 бит/сек
    Count of elements : 13
    Размер потока : 485 байт (0%)
    Заголовок : Forced
    Язык : Russian
    Default : Да
    Forced : Нет
    Текст #2
    Идентификатор : 5
    Формат : UTF-8
    Идентификатор кодека : S_TEXT/UTF8
    Идентификатор кодека/Информация : UTF-8 Plain Text
    Продолжительность : 59 м. 10 с.
    Битрейт : 100 бит/сек
    Count of elements : 810
    Размер потока : 43, 6 Кбайт (0%)
    Язык : Russian
    Default : Нет
    Forced : Нет
    Текст #3
    Идентификатор : 6
    Формат : UTF-8
    Идентификатор кодека : S_TEXT/UTF8
    Идентификатор кодека/Информация : UTF-8 Plain Text
    Продолжительность : 57 м. 32 с.
    Битрейт : 64 бит/сек
    Count of elements : 845
    Размер потока : 27, 0 Кбайт (0%)
    Язык : English
    Default : Нет
    Forced : Нет
    Текст #4
    Идентификатор : 7
    Формат : UTF-8
    Идентификатор кодека : S_TEXT/UTF8
    Идентификатор кодека/Информация : UTF-8 Plain Text
    Продолжительность : 59 м. 13 с.
    Битрейт : 66 бит/сек
    Count of elements : 922
    Размер потока : 29, 0 Кбайт (0%)
    Заголовок : SDH
    Язык : English
    Default : Нет
    Forced : Нет
    Текст #5
    Идентификатор : 8
    Формат : UTF-8
    Идентификатор кодека : S_TEXT/UTF8
    Идентификатор кодека/Информация : UTF-8 Plain Text
    Продолжительность : 59 м. 10 с.
    Битрейт : 66 бит/сек
    Count of elements : 785
    Размер потока : 29, 0 Кбайт (0%)
    Язык : Romanian
    Default : Нет
    Forced : Нет

    Скриншоты для ознакомления



    Все одноименные релизы в Клубе
    Время раздачи: 24/7 (круглосуточно) (до появления первых 3-5 скачавших)

    Онлайн видео Леденящие душу приключения Сабрины



    Леденящие душу приключения Сабрины / Chilling Adventures of Sabrina (2020) WEB-DLRip [H.264 / 1080p-LQ] (сезон 3, серии 1-8 из 8) Пифагор торрент скачать бесплатно
    Рейтинг →
     (голосов: 1, оценка 4/5, голосовать можно 1 раз )

    Другие торренты по теме:

  • Леденящие душу приключения Сабрины / The Chilling Adventures of Sabrina (2018) WEBRip [H.264 / 1080p-LQ] (сезон 1, серии 1-3 из 10) OMSKBIRD (обновляемая) [AD]
  • Леденящие душу приключения Сабрины / Chilling Adventures of Sabrina (2018) WEBRip [H.264 / 720p-LQ] (сезон 1, серии 1-10 из 10) BaibaKo
  • Леденящие душу приключения Сабрины / Chilling Adventures of Sabrina (2018) WEBRip [H.264 / 720p-LQ] (сезон 1, серии 1-10 из 10)
  • Леденящие душу приключения Сабрины / Chilling Adventures of Sabrina (2018) WEB-DL [H.264 / 1080p-LQ] (сезон 1, серии 1-10 из 10) TVShows
  • Леденящие душу приключения Сабрины / The Chilling Adventures of Sabrina (2019) WEBRip [H.264 / 1080p-LQ] (сезон 2, серии 1-2 из 9) OMSKBIRD (обновляемая) [AD]
  • Леденящие душу приключения Сабрины / The Chilling Adventures of Sabrina (2019) WEBRip (сезон 2, серии 1-9 из 9) Пифагор
  • Леденящие душу приключения Сабрины / Chilling Adventures of Sabrina (2018-2020) WEB-DLRip (сезон 1-3, серии 1-28 из 28) Пифагор


    • Комментарии (0):

      Информация

      Информация

        Посетители, находящиеся в группе Гости, не могут оставлять комментарии в данной новости.

        ↓ Меню




        ↓ Опрос

        Вы добавили сайт в закладки?
        Да
        Нет


        Популярное