.
Авторизация | Регистрация
bitok.xyz
Торрент скачать бесплатно Фильмы торрент скачать Звёздный путь: Пикар / Star Trek: Picard (2020) WEBRip [H.264 / 1080p-LQ] (сезон 1, серии 1 из 10) Kerob (обновляемая) [AD] торрент скачать бесплатно


    Звёздный путь: Пикар / Star Trek: Picard (2020) WEBRip [H.264 / 1080p-LQ] (сезон 1, серии 1 из 10) Kerob (обновляемая) [AD] торрент скачать бесплатно

    Дата: 27-01-2020, 05:00 | .torrent скачали: 1

    Звёздный путь: Пикар / Star Trek: Picard (2020) WEBRip [H.264 / 1080p-LQ] (сезон 1, серии 1 из 10) Kerob (обновляемая) [AD]Производство: США/CBS Television Studios, Roddenberry Entertainment, Secret Hideout
    Жанр: фантастика, боевик, драма, приключения
    Режиссер: Ханель М. Кулпеппер, Джонатан Фрейкс, Акива Голдсман

    Актеры
    Патрик Стюарт Сантьяго Кабрера Иза Брионес Элисон Пилл Гарри Тредэвэй Мишель Херд Ребекка Висоцки Джейми МакШейн Орла Брэйди и др.

    Описание

    Спустя 15 лет жизнь некогда бороздившего космические просторы Жана-Люка Пикара, кажется, стала совсем спокойной. Однако вскоре ему придётся покинуть насиженное место и отправиться навстречу очередным приключениям.

    Дата мировой премьеры: 13 января 2020
    Релиз от: Kerob
    Продолжительность: ~ 00: 46: 00 серия
    Качество видео: WEBRip
    Перевод: Многоголосый любительский (Kerob)
    Реклама: Присутствуют аудио и видео вставки рекламы
    Видео: AVC/H.264, 1920x800, ~6800 Kbps
    Аудио: AAC, 2 ch, 192 Kbps
    Общее
    Уникальный идентификатор : 226681222711219762305322117841159281817 (0xAA893728B6980D41AA02B2C9F3815C99)
    Полное имя : D: ЗагрузкиCities Skylines 1.12.3-f3Star.Trek.Picard.S01.1080p.KerobStar.Trek.Picard.S01E01.1080p.Kerob.mkv
    Формат : Matroska
    Версия формата : Version 4
    Размер файла : 2, 23 Гбайт
    Продолжительность : 46 м. 46 с.
    Общий поток : 6815 Кбит/сек
    Дата кодирования : UTC 2020-01-23 09: 35: 19
    Программа кодирования : mkvmerge v41.0.0 (\'Smarra\') 64-bit
    Библиотека кодирования : libebml v1.3.9 + libmatroska v1.5.2
    Видео
    Идентификатор : 1
    Формат : AVC
    Формат/Информация : Advanced Video Codec
    Профиль формата : Main@L4
    Настройки формата : CABAC/1 Ref Frames
    Параметр CABAC формата : Да
    Параметр RefFrames формата : 1 кадр
    Параметр GOP формата : M=1, N=25
    Идентификатор кодека : V_MPEG4/ISO/AVC
    Продолжительность : 46 м. 46 с.
    Вид битрейта : Постоянный
    Битрейт : 6800 Кбит/сек
    Ширина : 1920 пикселей
    Высота : 800 пикселей
    Соотношение сторон : 2, 40: 1
    Режим частоты кадров : Постоянный
    Частота кадров : 23, 976 (24000/1001) кадра/сек
    Цветовое пространство : YUV
    Субдискретизация насыщенности : 4: 2: 0
    Битовая глубина : 8 бит
    Тип развёртки : Прогрессивная
    Бит/(Пиксели*Кадры) : 0.185
    Размер потока : 2, 16 Гбайт (97%)
    Default : Да
    Forced : Нет
    Аудио
    Идентификатор : 2
    Формат : AAC LC
    Формат/Информация : Advanced Audio Codec Low Complexity
    Идентификатор кодека : A_AAC-2
    Продолжительность : 46 м. 46 с.
    Битрейт : 192 Кбит/сек
    Каналы : 2 канала
    ChannelLayout : L R
    Частота : 48, 0 КГц
    Частота кадров : 46, 875 кадров/сек (1024 SPF)
    Метод сжатия : С потерями
    Размер потока : 65, 4 Мбайт (3%)
    Default : Да
    Forced : Нет

    Скриншоты для ознакомления



    Все одноименные релизы в Клубе
    Время раздачи: 24/7 (до появления первых 3-5 скачавших)

    Онлайн видео Звёздный путь: Пикар



    Звёздный путь: Пикар / Star Trek: Picard (2020) WEBRip [H.264 / 1080p-LQ] (сезон 1, серии 1 из 10) Kerob (обновляемая) [AD] торрент скачать бесплатно
    Рейтинг →
     (голосов: 1, оценка 3/5, голосовать можно 1 раз )

    Другие торренты по теме:

  • Звёздный Путь: Следующее Поколение / Star Trek: The Next Generation (1987) HDRip [H.264] (сезон 1, серии 1-26 из 26) (AXN Sci-fi) [MP4|768x576]
  • Звёздный Путь: Следующее Поколение / Star Trek: The Next Generation (1988-1989) HDRip [H.264] (сезон 2, серии 1-22 из 22) (AXN Sci-fi) [MP4|768x576]
  • Звёздный Путь: Следующее Поколение / Star Trek: The Next Generation (1989-1990) HDRip [H.264] (сезон 3, серии 1-26 из 26) (AXN Sci-fi) [MP4|768x576]
  • Звёздный Путь: Следующее Поколение / Star Trek: The Next Generation (1990-1991) HDRip [H.264] (сезон 4, серии 1-26 из 26) (AXN Sci-fi) [MP4|768x576]
  • Звёздный Путь: Следующее Поколение / Star Trek: The Next Generation (1991-1992) HDRip [H.264] (сезон 5, серии 1-26 из 26) (AXN Sci-fi) [MP4|768x576]
  • Звёздный Путь: Следующее Поколение / Star Trek: The Next Generation (1992-1993) HDRip [H.264] (сезон 6, серии 1-26 из 26) (AXN Sci-fi) [MP4|768x576]
  • Звёздный Путь: Следующее Поколение / Star Trek: The Next Generation (1993) HDRip [H.264] (сезон 7, серии 1-26 из 26) (AXN Sci-fi) [MP4|768x576]
  • Звёздный путь: Дискавери / Star Trek: Discovery (2017) WEBRip [H.264 / 1080p-LQ] (сезон 1) [Трейлер]


    • Комментарии (0):

      Информация

      Информация

        Посетители, находящиеся в группе Гости, не могут оставлять комментарии в данной новости.

        ↓ Меню




        ↓ Опрос

        Вы добавили сайт в закладки?
        Да
        Нет


        Популярное