.
Авторизация | Регистрация
bitok.xyz
Торрент скачать бесплатно Фильмы торрент скачать Звёздный путь: Пикар / Star Trek: Picard (2020) WEB-DL [H.264 / 1080p] (сезон 1, серия 1 из 10) SDI Media (обновляемая) торрент скачать бесплатно


    Звёздный путь: Пикар / Star Trek: Picard (2020) WEB-DL [H.264 / 1080p] (сезон 1, серия 1 из 10) SDI Media (обновляемая) торрент скачать бесплатно

    Дата: 27-01-2020, 05:00 | .torrent скачали: 1

    Звёздный путь: Пикар / Star Trek: Picard (2020) WEB-DL [H.264 / 1080p] (сезон 1, серия 1 из 10) SDI Media (обновляемая)Производство: США/CBS Television Studios, Roddenberry Entertainment, Secret Hideout
    Жанр: Фантастика, боевик, драма, приключения
    Режиссер: Ханель М. Кулпеппер, Джонатан Фрейкс, Акива Голдсман

    Актеры
    Патрик Стюарт, Сантьяго Кабрера, Иза Брионес, Элисон Пилл, Гарри Тредэвэй, Мишель Херд, Ребекка Висоцки, Джейми МакШейн, Орла Брэйди и др.

    Описание

    Спустя 15 лет жизнь некогда бороздившего космические просторы Жана-Люка Пикара, кажется, стала совсем спокойной. Однако вскоре ему придётся покинуть насиженное место и отправиться навстречу очередным приключениям.

    Дата мировой премьеры: 13 января 2020
    Продолжительность: ~00: 44: 00 серия
    Качество видео: WEB-DL
    Перевод: Профессиональный (многоголосый закадровый) | SDI Media
    Субтитры: русские (Forced, Full), английские (Forced, SDH) и другие
    Видео : AVC/H.264, 1920x1080 (16: 9) ~8711 kbps
    Аудио #1 : E-AC3, 6 ch, 640 Kbps - русский
    Аудио #2 : E-AC3, 6 ch, 640 Kbps - английский
    Общее
    Уникальный идентификатор : 141287620540435136587945446781422896113 (0x6A4B0183C6DCDF0DD356BD80B30B83F1)
    Полное имя : Звёздный путь Пикар (сезон любимого сериала 1) Star Trek Picard (2020) WEB-DL - SDI MediaStar.Trek.Picard.S01E01.1080p.AMZN.WEB-DL.DDP5.1.H.264-EniaHD.mkv
    Формат : Matroska
    Версия формата : Version 4
    Размер файла : 3, 09 Гбайт
    Продолжительность : 44 м. 18 с.
    Общий поток : 9994 Кбит/сек
    Название фильма : Star Trek: Picard S01E01 - EniaHD
    Дата кодирования : UTC 2020-01-24 06: 18: 27
    Программа кодирования : mkvmerge v42.0.0 (\'Overtime\') 64-bit
    Библиотека кодирования : libebml v1.3.10 + libmatroska v1.5.2
    Видео
    Идентификатор : 1
    Формат : AVC
    Формат/Информация : Advanced Video Codec
    Профиль формата : High@L4
    Настройки формата : CABAC/4 Ref Frames
    Параметр CABAC формата : Да
    Параметр RefFrames формата : 4 кадра
    Идентификатор кодека : V_MPEG4/ISO/AVC
    Продолжительность : 44 м. 18 с.
    Вид битрейта : Постоянный
    Битрейт : 8711 Кбит/сек
    Номинальный битрейт : 10000 Кбит/сек
    Ширина : 1920 пикселей
    Высота : 1080 пикселей
    Соотношение сторон : 16: 9
    Режим частоты кадров : Постоянный
    Частота кадров : 23, 976 (24000/1001) кадра/сек
    Цветовое пространство : YUV
    Субдискретизация насыщенности : 4: 2: 0
    Битовая глубина : 8 бит
    Тип развёртки : Прогрессивная
    Бит/(Пиксели*Кадры) : 0.175
    Размер потока : 2, 70 Гбайт (87%)
    Default : Да
    Forced : Нет
    Цветовой диапазон : Limited
    Основные цвета : BT.709
    Характеристики трансфера : BT.709
    Коэффициенты матрицы : BT.709
    Аудио #1
    Идентификатор : 2
    Формат : E-AC-3
    Формат/Информация : Enhanced AC-3
    Коммерческое название : Dolby Digital Plus
    Идентификатор кодека : A_EAC3
    Продолжительность : 44 м. 18 с.
    Вид битрейта : Постоянный
    Битрейт : 640 Кбит/сек
    Каналы : 6 каналов
    ChannelLayout : L R C LFE Ls Rs
    Частота : 48, 0 КГц
    Частота кадров : 31, 250 кадров/сек (1536 SPF)
    Метод сжатия : С потерями
    Размер потока : 203 Мбайт (6%)
    Язык : Russian
    ServiceKind/String : Complete Main
    Default : Да
    Forced : Нет
    Аудио #2
    Идентификатор : 3
    Формат : E-AC-3
    Формат/Информация : Enhanced AC-3
    Коммерческое название : Dolby Digital Plus
    Идентификатор кодека : A_EAC3
    Продолжительность : 44 м. 18 с.
    Вид битрейта : Постоянный
    Битрейт : 640 Кбит/сек
    Каналы : 6 каналов
    ChannelLayout : L R C LFE Ls Rs
    Частота : 48, 0 КГц
    Частота кадров : 31, 250 кадров/сек (1536 SPF)
    Метод сжатия : С потерями
    Размер потока : 203 Мбайт (6%)
    Язык : English
    ServiceKind/String : Complete Main
    Default : Нет
    Forced : Нет
    Текст #1
    Идентификатор : 4
    Формат : UTF-8
    Идентификатор кодека : S_TEXT/UTF8
    Идентификатор кодека/Информация : UTF-8 Plain Text
    Продолжительность : 39 м. 27 с.
    Битрейт : 3 бит/сек
    ElementCount : 23
    Размер потока : 975 байт (0%)
    Заголовок : Forced
    Язык : Russian
    Default : Да
    Forced : Нет
    Текст #2
    Идентификатор : 5
    Формат : UTF-8
    Идентификатор кодека : S_TEXT/UTF8
    Идентификатор кодека/Информация : UTF-8 Plain Text
    Продолжительность : 42 м. 26 с.
    Битрейт : 89 бит/сек
    ElementCount : 571
    Размер потока : 27, 9 Кбайт (0%)
    Язык : Russian
    Default : Нет
    Forced : Нет
    Текст #3
    Идентификатор : 6
    Формат : UTF-8
    Идентификатор кодека : S_TEXT/UTF8
    Идентификатор кодека/Информация : UTF-8 Plain Text
    Продолжительность : 3 м. 58 с.
    Битрейт : 5 бит/сек
    ElementCount : 5
    Размер потока : 156 байт (0%)
    Заголовок : Forced
    Язык : English
    Default : Нет
    Forced : Нет
    Текст #4
    Идентификатор : 7
    Формат : UTF-8
    Идентификатор кодека : S_TEXT/UTF8
    Идентификатор кодека/Информация : UTF-8 Plain Text
    Продолжительность : 42 м. 25 с.
    Битрейт : 56 бит/сек
    ElementCount : 589
    Размер потока : 17, 6 Кбайт (0%)
    Язык : English
    Default : Нет
    Forced : Нет
    Текст #5
    Идентификатор : 8
    Формат : UTF-8
    Идентификатор кодека : S_TEXT/UTF8
    Идентификатор кодека/Информация : UTF-8 Plain Text
    Продолжительность : 42 м. 26 с.
    Битрейт : 58 бит/сек
    ElementCount : 560
    Размер потока : 18, 3 Кбайт (0%)
    Язык : German
    Default : Нет
    Forced : Нет
    Текст #6
    Идентификатор : 9
    Формат : UTF-8
    Идентификатор кодека : S_TEXT/UTF8
    Идентификатор кодека/Информация : UTF-8 Plain Text
    Продолжительность : 42 м. 26 с.
    Битрейт : 54 бит/сек
    ElementCount : 573
    Размер потока : 16, 9 Кбайт (0%)
    Заголовок : European
    Язык : Spanish
    Default : Нет
    Forced : Нет
    Текст #7
    Идентификатор : 10
    Формат : UTF-8
    Идентификатор кодека : S_TEXT/UTF8
    Идентификатор кодека/Информация : UTF-8 Plain Text
    Продолжительность : 43 м. 23 с.
    Битрейт : 61 бит/сек
    ElementCount : 564
    Размер потока : 19, 4 Кбайт (0%)
    Язык : French
    Default : Нет
    Forced : Нет
    Текст #8
    Идентификатор : 11
    Формат : UTF-8
    Идентификатор кодека : S_TEXT/UTF8
    Идентификатор кодека/Информация : UTF-8 Plain Text
    Продолжительность : 43 м. 23 с.
    Битрейт : 50 бит/сек
    ElementCount : 569
    Размер потока : 16, 1 Кбайт (0%)
    Язык : Italian
    Default : Нет
    Forced : Нет
    Текст #9
    Идентификатор : 12
    Формат : UTF-8
    Идентификатор кодека : S_TEXT/UTF8
    Идентификатор кодека/Информация : UTF-8 Plain Text
    Продолжительность : 43 м. 23 с.
    Битрейт : 55 бит/сек
    ElementCount : 569
    Размер потока : 17, 6 Кбайт (0%)
    Язык : Portuguese
    Default : Нет
    Forced : Нет
    Меню
    00: 00: 00.000 : : Amazon Original
    00: 00: 06.000 : : Keep the game from ending
    00: 04: 01.000 : : Activating a new weapon
    00: 06: 55.000 : : Opening Credits
    00: 08: 33.000 : : An important interview
    00: 16: 38.000 : : Dahj finds Picard
    00: 22: 06.000 : : A clue hidden in a painting
    00: 26: 33.000 : : Focus and find help
    00: 28: 08.000 : : The truth about Dahj
    00: 33: 49.000 : : A visit to Okinawa Research Facility
    00: 40: 38.000 : : Another sad story
    00: 43: 17.000 : : End Credits
    1x02
    30 января 2020
    1x03
    6 февраля 2020
    1x04
    13 февраля 2020
    1x05
    20 февраля 2020
    1x06
    27 февраля 2020
    1x07
    5 марта 2020
    1x08
    12 марта 2020
    1x09
    19 марта 2020
    1x10
    26 марта 2020

    Онлайн видео Звёздный путь: Пикар



    Звёздный путь: Пикар / Star Trek: Picard (2020) WEB-DL [H.264 / 1080p] (сезон 1, серия 1 из 10) SDI Media (обновляемая) торрент скачать бесплатно
    Рейтинг →
     (голосов: 1, оценка 4/5, голосовать можно 1 раз )

    Другие торренты по теме:

  • Звёздный Путь: Следующее Поколение / Star Trek: The Next Generation (1987) HDRip [H.264] (сезон 1, серии 1-26 из 26) (AXN Sci-fi) [MP4|768x576]
  • Звёздный Путь: Следующее Поколение / Star Trek: The Next Generation (1988-1989) HDRip [H.264] (сезон 2, серии 1-22 из 22) (AXN Sci-fi) [MP4|768x576]
  • Звёздный Путь: Следующее Поколение / Star Trek: The Next Generation (1989-1990) HDRip [H.264] (сезон 3, серии 1-26 из 26) (AXN Sci-fi) [MP4|768x576]
  • Звёздный Путь: Следующее Поколение / Star Trek: The Next Generation (1990-1991) HDRip [H.264] (сезон 4, серии 1-26 из 26) (AXN Sci-fi) [MP4|768x576]
  • Звёздный Путь: Следующее Поколение / Star Trek: The Next Generation (1991-1992) HDRip [H.264] (сезон 5, серии 1-26 из 26) (AXN Sci-fi) [MP4|768x576]
  • Звёздный Путь: Следующее Поколение / Star Trek: The Next Generation (1992-1993) HDRip [H.264] (сезон 6, серии 1-26 из 26) (AXN Sci-fi) [MP4|768x576]
  • Звёздный Путь: Следующее Поколение / Star Trek: The Next Generation (1993) HDRip [H.264] (сезон 7, серии 1-26 из 26) (AXN Sci-fi) [MP4|768x576]
  • Звёздный путь: Дискавери / Star Trek: Discovery (2017) WEBRip [H.264 / 1080p-LQ] (сезон 1) [Трейлер]


    • Комментарии (0):

      Информация

      Информация

        Посетители, находящиеся в группе Гости, не могут оставлять комментарии в данной новости.

        ↓ Меню




        ↓ Опрос

        Вы добавили сайт в закладки?
        Да
        Нет


        Популярное