.
Авторизация | Регистрация
bitok.xyz
Торрент скачать бесплатно Фильмы торрент скачать Пацаны / The Boys (2019) WEB-DL [H.264 / 1080p-LQ] (сезон 1, серии 1-8 из 8) Кубик в кубе торрент скачать бесплатно


    Пацаны / The Boys (2019) WEB-DL [H.264 / 1080p-LQ] (сезон 1, серии 1-8 из 8) Кубик в кубе торрент скачать бесплатно

    Дата: 27-01-2020, 05:00 | .torrent скачали: 2

    Пацаны / The Boys (2019) WEB-DL [H.264 / 1080p-LQ] (сезон 1, серии 1-8 из 8) Кубик в кубеПроизводство: США/Amazon Studios, Original Film, Point Grey Pictures
    Жанр: фантастика, боевик, комедия, криминал
    Режиссер: Филип Сгриккиа, Дэниэл Эттиэс, Эрик Крипке

    Актеры
    Карл Урбан, Джек Куэйд, Энтони Старр, Эрин Мориарти, Доминик МакЭллигот, Джесси Ашер, Лас Алонсо, Чейс Кроуфорд, Томер Капон, Нэйтан Митчелл

    Описание

    Пацаны — это специальный отряд ЦРУ, задача которых держать супергероев в узде любыми доступными способами. В нелегкие времена, когда людям со сверхспособностями сложно противостоять обратной стороне славы, Пацаны борются с коррумпированными супергероями, используя в работе многочисленные грязные приемчики.

    Релиз от: Кубик в кубе
    Продолжительность: ~01: 00: 00 серия
    Качество видео: WEB-DL
    Перевод: Двухголосый профессиональный (Кубик в кубе)
    Язык озвучки: русский
    Субтитры: Русские, английские
    Внимание: присутствует ненормативная лексика
    Видео: AVC/H.264, 1920x1080, ~7520 kbps
    Аудио #1: AC3, 6 ch, 448 kbps - русский
    Аудио #2: E-AC-3, 6 ch, 640 kbps - английский
    General
    Unique ID : 270246046680182055126280635766217400184 (0xCB4F7ED043B31A7CFA3F97F982405F78)
    Complete name : \FREEWIND_NASvideoTVThe.Boys.2019.S01.WEB-DL.1080p.KvKThe.Boys.2019.S01E01.The.Name.of.the.Game.WEB-DL.1080p.KvK.mkv
    Format : Matroska
    Format version : Version 4
    File size : 3.62 GiB
    Duration : 1 h 0 min
    Overall bit rate : 8 610 kb/s
    Encoded date : UTC 2019-07-29 15: 46: 30
    Writing application : mkvmerge v35.0.0 (\'All The Love In The World\') 64-bit
    Writing library : libebml v1.3.9 + libmatroska v1.5.2
    Video
    ID : 1
    Format : AVC
    Format/Info : Advanced Video Codec
    Format profile : High@L4
    Format settings : CABAC/4 Ref Frames
    Format settings, CABAC : Yes
    Format settings, Reference : 4 frames
    Codec ID : V_MPEG4/ISO/AVC
    Duration : 1 h 0 min
    Bit rate mode : Constant
    Bit rate : 7 520 kb/s
    Nominal bit rate : 10 000 kb/s
    Width : 1 920 pixels
    Height : 1 080 pixels
    Display aspect ratio : 16: 9
    Frame rate mode : Constant
    Frame rate : 23.976 (24000/1001) FPS
    Color space : YUV
    Chroma subsampling : 4: 2: 0
    Bit depth : 8 bits
    Scan type : Progressive
    Bits/(Pixel*Frame) : 0.151
    Stream size : 3.16 GiB (87%)
    Default : Yes
    Forced : No
    Color range : Limited
    Color primaries : BT.709
    Transfer characteristics : BT.709
    Matrix coefficients : BT.709
    Audio #1
    ID : 2
    Format : AC-3
    Format/Info : Audio Coding 3
    Commercial name : Dolby Digital
    Codec ID : A_AC3
    Duration : 1 h 0 min
    Bit rate mode : Constant
    Bit rate : 448 kb/s
    Channel(s) : 6 channels
    Channel layout : L R C LFE Ls Rs
    Sampling rate : 48.0 kHz
    Frame rate : 31.250 FPS (1536 SPF)
    Bit depth : 16 bits
    Compression mode : Lossy
    Stream size : 193 MiB (5%)
    Title : Кубик в кубе
    Language : Russian
    Service kind : Complete Main
    Default : Yes
    Forced : No
    Audio #2
    ID : 3
    Format : E-AC-3
    Format/Info : Enhanced AC-3
    Commercial name : Dolby Digital Plus
    Codec ID : A_EAC3
    Duration : 1 h 0 min
    Bit rate mode : Constant
    Bit rate : 640 kb/s
    Channel(s) : 6 channels
    Channel layout : L R C LFE Ls Rs
    Sampling rate : 48.0 kHz
    Frame rate : 31.250 FPS (1536 SPF)
    Compression mode : Lossy
    Stream size : 275 MiB (7%)
    Title : Original
    Language : English
    Service kind : Complete Main
    Default : No
    Forced : No
    Text #1
    ID : 4
    Format : UTF-8
    Codec ID : S_TEXT/UTF8
    Codec ID/Info : UTF-8 Plain Text
    Duration : 57 min 22 s
    Bit rate : 111 b/s
    Count of elements : 848
    Stream size : 46.8 KiB (0%)
    Language : Russian
    Default : No
    Forced : No
    Text #2
    ID : 5
    Format : UTF-8
    Codec ID : S_TEXT/UTF8
    Codec ID/Info : UTF-8 Plain Text
    Duration : 59 min 24 s
    Bit rate : 77 b/s
    Count of elements : 1184
    Stream size : 33.6 KiB (0%)
    Language : English
    Default : No
    Forced : No
    Menu
    00: 00: 00.000 : en: Amazon Original
    00: 00: 05.000 : en: Ratings
    00: 00: 15.000 : en: Studio Logo
    00: 00: 27.000 : en: Superheroes to the rescue
    00: 02: 35.000 : en: A love cut short
    00: 06: 39.000 : en: Meet Starlight
    00: 09: 07.000 : en: Saying goodbye to Robin
    00: 11: 56.000 : en: An important phone call
    00: 13: 07.000 : en: Hughie wants to make things right
    00: 14: 59.000 : en: A great time to be a superhero
    00: 19: 11.000 : en: A-Train seems to be everywhere
    00: 20: 06.000 : en: How bad do you want to be in the seven?
    00: 24: 25.000 : en: Billy makes Hughie an offer
    00: 28: 58.000 : en: Supes let loose
    00: 31: 18.000 : en: Never let them see you cry
    00: 32: 19.000 : en: Someone\'s trying to hide something
    00: 34: 53.000 : en: Negotiations for a new hero
    00: 36: 56.000 : en: Figure out who you are
    00: 41: 26.000 : en: Hughie accepts the offer
    00: 42: 42.000 : en: The first meeting of the new Seven
    00: 44: 19.000 : en: Hughie does his part
    00: 51: 19.000 : en: Madelyn caves on the deal
    00: 52: 03.000 : en: An unexpected visitor
    00: 57: 03.000 : en: Some bumpy turbulence
    00: 58: 10.000 : en: End Credits

    Скриншоты для ознакомления



    Все одноименные релизы в Клубе
    Время раздачи: 24/7 (до появления первых 3-5 скачавших)

    Онлайн видео Пацаны



    Пацаны / The Boys (2019) WEB-DL [H.264 / 1080p-LQ] (сезон 1, серии 1-8 из 8) Кубик в кубе торрент скачать бесплатно
    Рейтинг →
     (голосов: 1, оценка 5/5, голосовать можно 1 раз )

    Другие торренты по теме:

  • Пацаны / The Boys (2019) WEBRip [H.264 / 720р-LQ] (сезон 1, серии 1-8 из 8) Kerob [AD]
  • Пацаны / The Boys (2019) WEB-DL [H.264 / 1080p] (сезон 1, серии 1-8 из 8) [EN / RU, EN Sub]
  • Пацаны / The Boys (2019) WEB-DLRip [H.264] (сезон 1, серии 1-8 из 8) HDrezka [PR]
  • Пацаны / The Boys (2019) WEB-DL [H.264 / 1080p] (сезон 1, серии 1-8 из 8) HDrezka
  • Пацаны / The Boys (2019) WEB-DLRip (сезон 1, серии 1-8 из 8) HDrezka


    • Комментарии (0):

      Информация

      Информация

        Посетители, находящиеся в группе Гости, не могут оставлять комментарии в данной новости.

        ↓ Меню




        ↓ Опрос

        Вы добавили сайт в закладки?
        Да
        Нет


        Популярное