.
Авторизация | Регистрация
bitok.xyz
Торрент скачать бесплатно Фильмы торрент скачать Открытое море / Alta Mar (2019) WEB-DLRip [H.264 / 720p-LQ] (сезон 2, серии 1-8 из 8) AMS [AD] торрент скачать бесплатно


    Открытое море / Alta Mar (2019) WEB-DLRip [H.264 / 720p-LQ] (сезон 2, серии 1-8 из 8) AMS [AD] торрент скачать бесплатно

    Дата: 27-01-2020, 05:00 | .torrent скачали: 0

    Открытое море / Alta Mar (2019) WEB-DLRip [H.264 / 720p-LQ] (сезон 2, серии 1-8 из 8) AMS [AD]Производство: Испания
    Жанр: драма, криминал, детектив
    Режиссер: Лино Эскалера, Мануэль Гомес Перейра, Карлос Седес

    Актеры
    Ивана Бакеро, Джон Кортахарена, Алехандра Ониэва, Элой Асорин, Чики Фернандес, Тамар Новас, Даниэль Лунд, Наталия Родригес, Игнасио Монтес, Бегонья Варгас и др.

    Описание

    В 1940 году из Европы в Южную Америку отправляется трансатлантический лайнер, который везет счастливых людей, бегущих от войны в новый дивный мир. Среди пассажиров две сестры Каролина и Ева, а также офицер Николас Сала, оказавшийся не в том месте и не в то время.
    Через какое-то время на борту появляется труп неизвестного пассажира, которого не было в списке, более того его никто не может вспомнить. Начинается расследование, в ходе которого обнаруживаются скелеты как в каждой каюте, так и самого судна.

    Продолжительность: ~00: 40: 00 серия
    Качество видео: WEB-DLRip
    Перевод: Многоголосый профессиональный - AMS (Adiós Muchachos Studio)
    Субтитры: Русские, английские, испанские
    Реклама: присутствуют аудио вставки рекламы
    Видео: AVC/H.264, 1280x720 (16: 9), ~1690 Kbps
    Аудио #1: AC3, 6 ch, 640 Kbps - русский
    Аудио #2: E-AC3, 6 ch, 640 Kbps - испанский
    General
    Unique ID : 238482568414384553722437007365239623294 (0xB36A126CC7E5F1EF63AA2760D0FE4E7E)
    Complete name : /Alta.mar.High.Seas.S02E08.720p.WEB-DL.AMS.mkv
    Format : Matroska
    Format version : Version 4
    File size : 906 MiB
    Duration : 43mn 20s
    Overall bit rate mode : Variable
    Overall bit rate : 2 922 Kbps
    Movie name : Alta Mar (High Seas) 2x08 - MVO AMS
    Encoded date : UTC 2019-12-17 01: 19: 22
    Writing application : mkvmerge v8.2.0 (\'World of Adventure\') 64bit
    Writing library : libebml v1.3.1 + libmatroska v1.4.2
    Video
    ID : 1
    Format : AVC
    Format/Info : Advanced Video Codec
    Format profile : Main@L3.1
    Format settings : CABAC/3 Ref Frames
    Format settings, CABAC : Yes
    Format settings, ReFrames : 3 frames
    Codec ID : V_MPEG4/ISO/AVC
    Duration : 42mn 50s
    Bit rate mode : Variable
    Bit rate : 1 690 Kbps
    Maximum bit rate : 2 535 Kbps
    Width : 1 280 pixels
    Height : 720 pixels
    Display aspect ratio : 16: 9
    Frame rate mode : Constant
    Frame rate : 25.000 fps
    Color space : YUV
    Chroma subsampling : 4: 2: 0
    Bit depth : 8 bits
    Scan type : Progressive
    Bits/(Pixel*Frame) : 0.073
    Stream size : 510 MiB (56%)
    Title : Alta Mar (High Seas) 2x08 - MVO AMS
    Writing library : x264 core 148 r2715 7e75228
    Encoding settings : cabac=1/ref=3/deblock=1: 0: 0/analyse=0x1: 0x111/me=umh/subme=10/psy=1/psy_rd=1.00: 0.00/mixed_ref=1/me_range=24/chroma_me=1/trellis=2/8x8dct=0/cqm=0/deadzone=21, 11/fast_pskip=1/chroma_qp_offset=-2/threads=6/lookahead_threads=1/sliced_threads=0/nr=0/decimate=1/interlaced=0/bluray_compat=0/stitchable=1/constrained_intra=0/bframes=2/b_pyramid=0/b_adapt=2/b_bias=0/direct=3/weightb=1/open_gop=0/weightp=2/keyint=250/keyint_min=25/scenecut=0/intra_refresh=0/rc_lookahead=50/rc=2pass/mbtree=1/bitrate=1690/ratetol=1.0/qcomp=0.50/qpmin=6/qpmax=51/qpstep=4/cplxblur=20.0/qblur=0.5/vbv_maxrate=2535/vbv_bufsize=3380/nal_hrd=vbr/filler=0/ip_ratio=1.40/aq=1: 1.00
    Default : Yes
    Forced : No
    Audio #1
    ID : 2
    Format : AC-3
    Format/Info : Audio Coding 3
    Commercial name : Dolby Digital
    Codec ID : A_AC3
    Duration : 43mn 20s
    Bit rate mode : Constant
    Bit rate : 640 Kbps
    Channel(s) : 6 channels
    Channel layout : L R C LFE Ls Rs
    Sampling rate : 48.0 KHz
    Frame rate : 31.250 fps (1536 SPF)
    Compression mode : Lossy
    Stream size : 198 MiB (22%)
    Title : MVO AMS
    Language : Russian
    Service kind : Complete Main
    Default : Yes
    Forced : No
    Audio #2
    ID : 3
    Format : E-AC-3
    Format/Info : Enhanced AC-3
    Commercial name : Dolby Digital Plus
    Codec ID : A_EAC3
    Duration : 42mn 50s
    Bit rate mode : Constant
    Bit rate : 640 Kbps
    Channel(s) : 6 channels
    Channel layout : L R C LFE Ls Rs
    Sampling rate : 48.0 KHz
    Frame rate : 31.250 fps (1536 SPF)
    Compression mode : Lossy
    Stream size : 196 MiB (22%)
    Title : Original
    Language : Spanish
    Service kind : Complete Main
    Default : No
    Forced : No
    Text #1
    ID : 4
    Format : UTF-8
    Codec ID : S_TEXT/UTF8
    Codec ID/Info : UTF-8 Plain Text
    Duration : 42mn 14s
    Bit rate : 78 bps
    Count of elements : 529
    Stream size : 24.3 KiB (0%)
    Title : Rus-Subs
    Language : Russian
    Default : No
    Forced : No
    Text #2
    ID : 5
    Format : UTF-8
    Codec ID : S_TEXT/UTF8
    Codec ID/Info : UTF-8 Plain Text
    Duration : 42mn 9s
    Bit rate : 53 bps
    Count of elements : 532
    Stream size : 16.5 KiB (0%)
    Title : Eng-Subs
    Language : English
    Default : No
    Forced : No
    Text #3
    ID : 6
    Format : UTF-8
    Codec ID : S_TEXT/UTF8
    Codec ID/Info : UTF-8 Plain Text
    Duration : 42mn 14s
    Bit rate : 55 bps
    Count of elements : 558
    Stream size : 17.3 KiB (0%)
    Title : Eng-Subs (SDH)
    Language : English
    Default : No
    Forced : No
    Text #4
    ID : 7
    Format : UTF-8
    Codec ID : S_TEXT/UTF8
    Codec ID/Info : UTF-8 Plain Text
    Duration : 1mn 20s
    Bit rate : 5 bps
    Count of elements : 4
    Stream size : 60.0 Bytes (0%)
    Title : Spa-Subs (Forced)
    Language : Spanish
    Default : No
    Forced : No
    Text #5
    ID : 8
    Format : UTF-8
    Codec ID : S_TEXT/UTF8
    Codec ID/Info : UTF-8 Plain Text
    Duration : 40mn 37s
    Bit rate : 50 bps
    Count of elements : 525
    Stream size : 15.0 KiB (0%)
    Title : Spa-Subs
    Language : Spanish
    Default : No
    Forced : No
    Text #6
    ID : 9
    Format : UTF-8
    Codec ID : S_TEXT/UTF8
    Codec ID/Info : UTF-8 Plain Text
    Duration : 40mn 41s
    Bit rate : 58 bps
    Count of elements : 572
    Stream size : 17.4 KiB (0%)
    Title : Spa-Subs (SDH)
    Language : Spanish
    Default : No
    Forced : No

    Скриншоты для ознакомления



    Все одноименные релизы в Клубе
    Время раздачи: 24/7 (круглосуточно) (до появления первых 3-5 скачавших)

    Онлайн видео Открытое море



    Открытое море / Alta Mar (2019) WEB-DLRip [H.264 / 720p-LQ] (сезон 2, серии 1-8 из 8) AMS [AD] торрент скачать бесплатно
    Рейтинг →
     (голосов: 1, оценка 5/5, голосовать можно 1 раз )

    Другие торренты по теме:

  • Наука 2.0. На пределе. Открытое море (2014) SATRip
  • Открытое море: Новые жертвы / The Reef (2010) BDRemux [H.264 / 1080p]
  • Открытое море / Niemand in de stad (Open Seas) (2018) DVDRip [MVO] [AD]
  • Открытое море / Alta Mar (2019) WEB-DLRip (сезон 1, серии 1-8 из 8) AMS [AD]
  • Открытое море / Alta Mar (2019) WEB-DLRip [H.264 / 1080p-LQ] (сезон 1, серии 1-8 из 8) AMS [AD]
  • Открытое море / Alta Mar (2019) WEB-DLRip [H.264 / 1080p-LQ] (сезон 2, серии 1-8 из 8) AMS [AD]
  • Открытое море / Alta Mar (2019) WEB-DLRip (сезон 2, серии 1-8 из 8) AMS [AD]


    • Комментарии (0):

      Информация

      Информация

        Посетители, находящиеся в группе Гости, не могут оставлять комментарии в данной новости.

        ↓ Меню




        ↓ Опрос

        Вы добавили сайт в закладки?
        Да
        Нет


        Популярное