.
Авторизация | Регистрация
bitok.xyz
Торрент скачать бесплатно Фильмы торрент скачать Рэй Донован / Ray Donovan (2019) WEB-DL [H.264 / 720p-LQ] (сезон 7, серии 1-10 из 10) NewStudio торрент скачать бесплатно


    Рэй Донован / Ray Donovan (2019) WEB-DL [H.264 / 720p-LQ] (сезон 7, серии 1-10 из 10) NewStudio торрент скачать бесплатно

    Дата: 27-01-2020, 05:00 | .torrent скачали: 0

    Рэй Донован / Ray Donovan (2019) WEB-DL [H.264 / 720p-LQ] (сезон 7, серии 1-10 из 10) NewStudioПроизводство: США/Mark Gordon Company
    Жанр: криминал, драма
    Режиссер: Джон Дал, Такер Гейтс, Майкл Аппендаль

    Актеры
    Лив Шрайбер, Паула Малкомсон, Кэтрин Монниг, Пуч Холл, Кэррис Дорси, Девон Бэгби, Джон Войт, Стивен Бауэр, Уильям Стэнфорд Дэвис, Майкл МакГрэйди, Фрэнк Уэйли

    Описание

    Лив Шрайбер возвращается в роли профессионального чистильщика — история Рэя Донована продолжается. В седьмом сезон любимого сериалае наш антигерой изо всех сил старается превратится в того человека, в ком нуждается его семья. И когда у него намечается небольшой прогресс в работе с психотерапевтом, вновь возникают призраки прошлого. Они вынуждают Донована вернуться к прежней жизни. Ему приходится балансировать между решением проблем своих клиентов и тем, чтобы окончательно не слететь с катушек самому (и вдобавок не попасться властям). Тем временем коррупционные делишки нью-йоркского мэра приносят за собой отголоски тёмного прошлого папаши Рэя Микки.

    Возраст: 18+ (зрителям, достигшим 18 лет. запрещено для детей)
    Релиз от: Kastiel@EniaHD
    Продолжительность: ~ 00: 58: 00 серия
    Качество видео: WEB-DL
    Перевод: Многоголосый профессиональный (NewStudio)
    Субтитры: русские (Full, Amedia), английские (SDH)
    Присутствует ненормативная лексика!
    Видео: AVC/H.264, 1280x720 (16: 9), ~3468 Kbps
    Аудио 1: AC3, 6 ch, 640 Kbps - русский
    Аудио 2: AC3, 6 ch, 640 Kbps - английский
    Общее
    Уникальный идентификатор : 238476985032616209693451189043893875297 (0xB368FF249866B057B4A01A1B0A2BB261)
    Полное имя : /Volumes/HDD/Movies/Movie/Ray.Donovan_s07_720p/Ray.Donovan.s07e01.WEB-DL.720p_EniaHD.mkv
    Формат : Matroska
    Версия формата : Version 4
    Размер файла : 1, 69 Гбайт
    Продолжительность : 50 м. 59 с.
    Общий поток : 4750 Кбит/сек
    Название фильма : Ray Donovan 07x01 (Faith. Hope. Love. Luck) - release by Kastiel@EniaHD
    Дата кодирования : UTC 2019-11-30 15: 18: 17
    Программа кодирования : mkvmerge v18.0.0 (\'Apricity\') 64-bit
    Библиотека кодирования : libebml v1.3.5 + libmatroska v1.4.8
    Видео
    Идентификатор : 1
    Формат : AVC
    Формат/Информация : Advanced Video Codec
    Профиль формата : High@L3.1
    Настройки формата : CABAC/4 Ref Frames
    Параметр CABAC формата : Да
    Параметр ReFrames формата : 4 кадра
    Идентификатор кодека : V_MPEG4/ISO/AVC
    Продолжительность : 50 м. 58 с.
    Вид битрейта : Постоянный
    Битрейт : 3468 Кбит/сек
    Номинальный битрейт : 6000 Кбит/сек
    Ширина : 1280 пикселей
    Высота : 720 пикселей
    Соотношение сторон : 16: 9
    Режим частоты кадров : Постоянный
    Частота кадров : 23, 976 (24000/1001) кадра/сек
    Цветовое пространство : YUV
    Субдискретизация насыщенности : 4: 2: 0
    Битовая глубина : 8 бит
    Тип развёртки : Прогрессивная
    Бит/(Пиксели*Кадры) : 0.157
    Размер потока : 1, 23 Гбайт (73%)
    Default : Да
    Forced : Нет
    Цветовой диапазон : Limited
    Основные цвета : BT.709
    Характеристики трансфера : BT.709
    Коэффициенты матрицы : BT.709
    Аудио #1
    Идентификатор : 2
    Формат : AC-3
    Формат/Информация : Audio Coding 3
    Коммерческое название : Dolby Digital
    Идентификатор кодека : A_AC3
    Продолжительность : 50 м. 59 с.
    Вид битрейта : Постоянный
    Битрейт : 640 Кбит/сек
    Каналы : 6 каналов
    Channel layout : L R C LFE Ls Rs
    Частота : 48, 0 КГц
    Частота кадров : 31, 250 кадров/сек (1536 SPF)
    Метод сжатия : С потерями
    Размер потока : 233 Мбайт (13%)
    Заголовок : DD5.1 NewStudio
    Язык : Russian
    Service kind : Complete Main
    Default : Да
    Forced : Нет
    Аудио #2
    Идентификатор : 3
    Формат : AC-3
    Формат/Информация : Audio Coding 3
    Коммерческое название : Dolby Digital
    Идентификатор кодека : A_AC3
    Продолжительность : 50 м. 59 с.
    Вид битрейта : Постоянный
    Битрейт : 640 Кбит/сек
    Каналы : 6 каналов
    Channel layout : L R C LFE Ls Rs
    Частота : 48, 0 КГц
    Частота кадров : 31, 250 кадров/сек (1536 SPF)
    Метод сжатия : С потерями
    Размер потока : 233 Мбайт (13%)
    Заголовок : DD5.1 Original
    Язык : English
    Service kind : Complete Main
    Default : Нет
    Forced : Нет
    Текст #1
    Идентификатор : 4
    Формат : UTF-8
    Идентификатор кодека : S_TEXT/UTF8
    Идентификатор кодека/Информация : UTF-8 Plain Text
    Продолжительность : 47 м. 37 с.
    Битрейт : 56 бит/сек
    Count of elements : 483
    Размер потока : 19, 7 Кбайт (0%)
    Заголовок : Full |Amedia|
    Язык : Russian
    Default : Нет
    Forced : Нет
    Текст #2
    Идентификатор : 5
    Формат : UTF-8
    Идентификатор кодека : S_TEXT/UTF8
    Идентификатор кодека/Информация : UTF-8 Plain Text
    Продолжительность : 49 м. 16 с.
    Битрейт : 51 бит/сек
    Count of elements : 768
    Размер потока : 18, 6 Кбайт (0%)
    Заголовок : SDH
    Язык : English
    Default : Нет
    Forced : Нет

    Скриншоты для ознакомления



    Все одноименные релизы в Клубе
    Время раздачи: 24/7 (круглосуточно) (до появления первых 3-5 скачавших)

    Онлайн видео Рэй Донован



    Рэй Донован / Ray Donovan (2019) WEB-DL [H.264 / 720p-LQ] (сезон 7, серии 1-10 из 10) NewStudio торрент скачать бесплатно
    Рейтинг →
     (голосов: 1, оценка 3/5, голосовать можно 1 раз )

    Другие торренты по теме:

  • Рэй Донован / Ray Donovan (2014) HDTVRip (Сезон 2, серии 01-11 из 12) NewStudio (Обновляемая)
  • Рэй Донован / Ray Donovan (2014) HDTVRip (Сезон 2, серии 1-11 из 12) NovaMedia (обновляемая)
  • Рэй Донован / Ray Donovan (2014) HDTV [H.264 / 1080i-LQ] (Сезон 2, серии 1-11 из 12) NovaMedia (обновляемая)
  • Рэй Донован / Ray Donovan (2014) HDTV [H.264 / 720p-LQ] (Сезон 2, Серия 1-11 из 12) NewStudio (обновляемая)
  • Рэй Донован / Ray Donovan (2015) WEB-DLRip (сезон 3, серии 1 из 12) NewStudio (обновляемая) скачать через торрент бесплатно
  • Рэй Донован / Ray Donovan (2015) HDTVRip [H.264] (сезон 3, серии 1 из 12) NewStudio (обновляемая) скачать через торрент бесплатно
  • Рэй Донован / Ray Donovan (2015) HDTVRip (сезон 3, серии 1 из 12) NewStudio (обновляемая) скачать через торрент бесплатно
  • Рэй Донован / Ray Donovan (2015) HDTVRip [H.264 / 720p-LQ] (сезон 3, серия 1 из 12) NewStudio (обновляемая) скачать через торрент бесплатно


    • Комментарии (0):

      Информация

      Информация

        Посетители, находящиеся в группе Гости, не могут оставлять комментарии в данной новости.

        ↓ Меню




        ↓ Опрос

        Вы добавили сайт в закладки?
        Да
        Нет


        Популярное