.
Авторизация | Регистрация
bitok.xyz
Торрент скачать бесплатно Фильмы торрент скачать Авеню 5 / Avenue 5 (2020) WEB-DL [H.264 / 1080p] (сезон 1, серии 1 из 8) Кравец (обновляемая) торрент скачать бесплатно


    Авеню 5 / Avenue 5 (2020) WEB-DL [H.264 / 1080p] (сезон 1, серии 1 из 8) Кравец (обновляемая) торрент скачать бесплатно

    Дата: 27-01-2020, 05:00 | .torrent скачали: 2

    Авеню 5 / Avenue 5 (2020) WEB-DL [H.264 / 1080p] (сезон 1, серии 1 из 8) Кравец (обновляемая)Производство: США/HBO
    Жанр: фантастика, комедия
    Режиссер: Натали Бэйли, Армандо Ианнуччи, Бекки Мартин

    Актеры
    Хью Лори, Зак Вудс, Джош Гад, Пепе Бэлдеррама, Sacharissa Claxton, Раффаэлло Дегруттола, Theresa Godly, Келли Кофлин, Сьюзи Накамура, Ребекка Фронт

    Описание

    В мире будущего главным туристическим направлением стал космос и наша Солнечная система. Один из пассажиров — начинающий комик, которому предоставляется шанс показать всем, что он самый смешной человек во Вселенной. Он отправляется в восьминедельный полёт на борту роскошного космического лайнера Галактика Джадда, хотя и понимает, что совершенно не готов к длительному путешествию.

    Дата мировой премьеры: 19 января 2020
    Дата премьеры в России: 20 января 2020
    Продолжительность: ~00: 30: 00 серия
    Качество видео: WEB-DL
    Перевод: Многоголосый профессиональный(Кравец по заказу Amedia)
    Субтитры: русские, английские
    Видео: AVC/H.264, 1920x1080 (16: 9), ~8970 Kbps
    Аудио: AC3, 2 ch, 192 Kbps - русский
    Аудио: E-AC-3, 6 ch, 640 Kbps - английский
    Общее
    Уникальный идентификатор : 198038622647572495756718183375309457378 (0x94FCD9F21678EA9759DAA202E79947E2)
    Полное имя : G: Avenue.5.S01.1080pAvenue.5.S01E01.1080p.mkv
    Формат : Matroska
    Версия формата : Version 4
    Размер файла : 1, 95 Гбайт
    Продолжительность : 28 м. 29 с.
    Общий поток : 9804 Кбит/сек
    Название фильма : Avenue 5 S01E01 - EniaHD
    Дата кодирования : UTC 2020-01-20 05: 03: 01
    Программа кодирования : mkvmerge v42.0.0 (\'Overtime\') 64-bit
    Библиотека кодирования : libebml v1.3.10 + libmatroska v1.5.2
    Видео
    Идентификатор : 1
    Формат : AVC
    Формат/Информация : Advanced Video Codec
    Профиль формата : High@L4
    Настройки формата : CABAC/4 Ref Frames
    Параметр CABAC формата : Да
    Параметр RefFrames формата : 4 кадра
    Идентификатор кодека : V_MPEG4/ISO/AVC
    Продолжительность : 28 м. 29 с.
    Вид битрейта : Постоянный
    Битрейт : 8969 Кбит/сек
    Номинальный битрейт : 10000 Кбит/сек
    Ширина : 1920 пикселей
    Высота : 1080 пикселей
    Соотношение сторон : 16: 9
    Режим частоты кадров : Постоянный
    Частота кадров : 23, 976 (24000/1001) кадра/сек
    Цветовое пространство : YUV
    Субдискретизация насыщенности : 4: 2: 0
    Битовая глубина : 8 бит
    Тип развёртки : Прогрессивная
    Бит/(Пиксели*Кадры) : 0.180
    Размер потока : 1, 79 Гбайт (91%)
    Default : Да
    Forced : Нет
    Цветовой диапазон : Limited
    Основные цвета : BT.709
    Характеристики трансфера : BT.709
    Коэффициенты матрицы : BT.709
    Аудио #1
    Идентификатор : 2
    Формат : AC-3
    Формат/Информация : Audio Coding 3
    Коммерческое название : Dolby Digital
    Идентификатор кодека : A_AC3
    Продолжительность : 28 м. 29 с.
    Вид битрейта : Постоянный
    Битрейт : 192 Кбит/сек
    Каналы : 2 канала
    ChannelLayout : L R
    Частота : 48, 0 КГц
    Частота кадров : 31, 250 кадров/сек (1536 SPF)
    Метод сжатия : С потерями
    Размер потока : 39, 1 Мбайт (2%)
    Язык : Russian
    ServiceKind/String : Complete Main
    Default : Да
    Forced : Нет
    Аудио #2
    Идентификатор : 3
    Формат : E-AC-3
    Формат/Информация : Enhanced AC-3
    Коммерческое название : Dolby Digital Plus
    Идентификатор кодека : A_EAC3
    Продолжительность : 28 м. 29 с.
    Вид битрейта : Постоянный
    Битрейт : 640 Кбит/сек
    Каналы : 6 каналов
    ChannelLayout : L R C LFE Ls Rs
    Частота : 48, 0 КГц
    Частота кадров : 31, 250 кадров/сек (1536 SPF)
    Метод сжатия : С потерями
    Размер потока : 130 Мбайт (7%)
    Язык : English
    ServiceKind/String : Complete Main
    Default : Нет
    Forced : Нет
    Текст #1
    Идентификатор : 4
    Формат : UTF-8
    Идентификатор кодека : S_TEXT/UTF8
    Идентификатор кодека/Информация : UTF-8 Plain Text
    Продолжительность : 27 м. 6 с.
    Битрейт : 179 бит/сек
    ElementCount : 485
    Размер потока : 35, 7 Кбайт (0%)
    Язык : Russian
    Default : Нет
    Forced : Нет
    Текст #2
    Идентификатор : 5
    Формат : UTF-8
    Идентификатор кодека : S_TEXT/UTF8
    Идентификатор кодека/Информация : UTF-8 Plain Text
    Продолжительность : 27 м. 23 с.
    Битрейт : 124 бит/сек
    ElementCount : 749
    Размер потока : 24, 9 Кбайт (0%)
    Заголовок : SDH
    Язык : English
    Default : Нет
    Forced : Нет

    Скриншоты для ознакомления



    Все одноименные релизы в Клубе
    Время раздачи: 24/7 (круглосуточно) (до появления первых 3-5 скачавших)

    Онлайн видео Авеню 5



    Авеню 5 / Avenue 5 (2020) WEB-DL [H.264 / 1080p] (сезон 1, серии 1 из 8) Кравец (обновляемая) торрент скачать бесплатно
    Рейтинг →
     (голосов: 1, оценка 3/5, голосовать можно 1 раз )

    Другие торренты по теме:

  • Пленник второй авеню / The Prisoner of Second Avenue (1975) DVDRip [H.264]


    • Комментарии (0):

      Информация

      Информация

        Посетители, находящиеся в группе Гости, не могут оставлять комментарии в данной новости.

        ↓ Меню




        ↓ Опрос

        Вы добавили сайт в закладки?
        Да
        Нет


        Популярное