.
Авторизация | Регистрация
bitok.xyz
Торрент скачать бесплатно Фильмы торрент скачать Ведьмак / The Witcher (2019) WEBRip (сезон 1, серии 1-8 из 8) AMS [AD] торрент скачать бесплатно


    Ведьмак / The Witcher (2019) WEBRip (сезон 1, серии 1-8 из 8) AMS [AD] торрент скачать бесплатно

    Дата: 27-01-2020, 05:00 | .torrent скачали: 1

    Ведьмак / The Witcher (2019) WEBRip (сезон 1, серии 1-8 из 8) AMS [AD]Производство: Польша, США/NetFlix, Pioneer Stilking Films, Platige Image, Sean Daniel Company
    Жанр: ужасы, фэнтези, боевик, драма, детектив, приключения
    Режиссер: Алик Сахаров, Шарлотта Брандстром, Алекс Гарсиа Лопес

    Актеры
    Генри Кавилл, Фрейя Алла, Аня Чалотра, Мими Дивени, Имон Фэррен, МайАнна Бёринг, Уилсон Раджу-Пухальте, Адам Леви, Джои Бэти, Ларс Миккельсен и др.

    Описание

    Все события в этом телесериале происходят в придуманном мире, в котором обитают всевозможные чудовищные существа, а также очень опасные монстры. Наш главный герой -- ведьмак, охотившийся за кровожадными оборотнями, представляющих угрозу для жизни людей. В раннем детстве он пережил мутацию, в результате чего получил лучшие боевые навыки: повышенную силу, быструю реакцию. Основной его задачей было за оплату уничтожать кровожадных обитателей. Но другой раз он шел наперекор своим нанимателям. Геральт оставлял в живых драконов, которых почти не осталось на земле; монстров обладающих высоким интеллектом и вообще старался не вмешиваться в политические интриги чародеев и королей. Но однажды он все таки был вовлечен в противостояния между королевствами, чтобы защитить совсем юную княжну, на которой были сосредоточены интересы больших людей. По предсказанию только ее будущий потомок мог решить судьбу всего человечества. Цири тоже хорошо владела мечом и обладала магией, вот им двоим и пришлось преодолевать все тяжелые испытания, встречающиеся на их пути.

    Продолжительность: ~01: 00: 00 серия
    Качество видео: WEBRip
    Перевод: Многоголосый профессиональный - AMS (Adiós Muchachos Studio)
    Субтитры: русские, английские
    Реклама: присутствуют видео, аудио вставки рекламы
    Видео: XviD, 720x368, ~2096 Kbps
    Аудио #1: AC3, 6 ch, 384 Kbps - русский
    Аудио #2: AC3, 6 ch, 384 Kbps - английский
    General
    Complete name : /The.Witcher.S01E01.400p.WEBRip.AMS.avi
    Format : AVI
    Format/Info : Audio Video Interleave
    Format profile : OpenDML
    File size : 1.24 GiB
    Duration : 1h 1mn
    Overall bit rate : 2 884 Kbps
    Movie name : The Witcher 1x01 - MVO AMS
    Writing application : Lavf57.71.100
    Video
    ID : 0
    Format : MPEG-4 Visual
    Format profile : Advanced Simple@L5
    Format settings : BVOP2
    Format settings, BVOP : 2
    Format settings, QPel : No
    Format settings, GMC : No warppoints
    Format settings, Matrix : Default (MPEG)
    Codec ID : XVID
    Codec ID/Hint : XviD
    Duration : 1h 1mn
    Bit rate : 2 096 Kbps
    Width : 720 pixels
    Height : 368 pixels
    Display aspect ratio : 16: 9
    Frame rate : 24.000 fps
    Color space : YUV
    Chroma subsampling : 4: 2: 0
    Bit depth : 8 bits
    Scan type : Progressive
    Compression mode : Lossy
    Bits/(Pixel*Frame) : 0.330
    Stream size : 924 MiB (73%)
    Title : The Witcher 1x01 - MVO AMS
    Writing library : XviD 67
    Audio #1
    ID : 1
    Format : AC-3
    Format/Info : Audio Coding 3
    Commercial name : Dolby Digital
    Codec ID : 2000
    Duration : 1h 1mn
    Bit rate mode : Constant
    Bit rate : 384 Kbps
    Channel(s) : 6 channels
    Channel layout : L R C LFE Ls Rs
    Sampling rate : 48.0 KHz
    Frame rate : 31.250 fps (1536 SPF)
    Bit depth : 16 bits
    Compression mode : Lossy
    Stream size : 169 MiB (13%)
    Alignment : Aligned on interleaves
    Interleave, duration : 32 ms (0.77 video frame)
    Title : MVO AMS
    Service kind : Complete Main
    Audio #2
    ID : 2
    Format : AC-3
    Format/Info : Audio Coding 3
    Commercial name : Dolby Digital
    Codec ID : 2000
    Duration : 1h 1mn
    Bit rate mode : Constant
    Bit rate : 384 Kbps
    Channel(s) : 6 channels
    Channel layout : L R C LFE Ls Rs
    Sampling rate : 48.0 KHz
    Frame rate : 31.250 fps (1536 SPF)
    Bit depth : 16 bits
    Compression mode : Lossy
    Stream size : 169 MiB (13%)
    Alignment : Aligned on interleaves
    Interleave, duration : 32 ms (0.77 video frame)
    Title : Original
    Service kind : Complete Main

    Скриншоты для ознакомления



    Все одноименные релизы в Клубе
    Время раздачи: Время раздачи: 24/7 (до появления первых 3-5 скачавших)

    Онлайн видео Ведьмак



    Ведьмак / The Witcher (2019) WEBRip (сезон 1, серии 1-8 из 8) AMS [AD] торрент скачать бесплатно
    Рейтинг →
     (голосов: 1, оценка 5/5, голосовать можно 1 раз )

    Другие торренты по теме:

  • Ведьмак 3: Дикая охота / The Witcher 3: Wild Hunt (2014) WEBRip [En]
  • The Witcher 2: Assassins of Kings / Ведьмак 2: Убийцы Королей (2011) GamePlayRip
  • The Witcher 2: Assassins of Kings / Ведьмак 2: Убийцы королей (2011) [Ru / Multi] (3.4.4.1) RePack R.G. Catalyst [Enhanced Edition] скачать через торрент бесплатно
  • Ведьмак 3: Дикая Охота / The Witcher 3: Wild Hunt (2015) [Ru / En] (1.03 / dlc) Repack R.G. Games скачать через торрент бесплатно
  • The Witcher 3: Wild Hunt / Ведьмак 3: Дикая Охота [Patch] (2015) (1.06) Official GOG скачать через торрент бесплатно
  • The Witcher 3: Wild Hunt / Ведьмак 3: Дикая Охота (2015) [Ru / Multi] (1.06 / dlc) License GOG скачать через торрент бесплатно
  • The Witcher 3: Wild Hunt / Ведьмак 3: Дикая Охота (2015) [Ru / Multi] (1.06 / dlc) Repack =nemos= скачать через торрент бесплатно
  • The Witcher / Ведьмак (2007) [Ru / Multi] (1.5.0.1304) Repack october2 [Enhanced Edition: Directors Cut / Полное издание] (GOG) скачать через торрент бесплатно


    • Комментарии (0):

      Информация

      Информация

        Посетители, находящиеся в группе Гости, не могут оставлять комментарии в данной новости.

        ↓ Меню




        ↓ Опрос

        Вы добавили сайт в закладки?
        Да
        Нет


        Популярное