.
Авторизация | Регистрация
bitok.xyz
Торрент скачать бесплатно Фильмы торрент скачать Ведьмак / The Witcher (2019) WEBRip [H.264 / 2160p] [4K] (сезон 1, серии 1-8 из 8) AMS [AD] торрент скачать бесплатно


    Ведьмак / The Witcher (2019) WEBRip [H.264 / 2160p] [4K] (сезон 1, серии 1-8 из 8) AMS [AD] торрент скачать бесплатно

    Дата: 27-01-2020, 05:00 | .torrent скачали: 0

    Ведьмак / The Witcher (2019) WEBRip [H.264 / 2160p] [4K] (сезон 1, серии 1-8 из 8) AMS [AD]Производство: Польша, США/NetFlix, Pioneer Stilking Films, Platige Image, Sean Daniel Company
    Жанр: ужасы, фэнтези, боевик, драма, детектив, приключения
    Режиссер: Алик Сахаров, Шарлотта Брандстром, Алекс Гарсиа Лопес

    Актеры
    Генри Кавилл, Фрейя Алла, Аня Чалотра, Мими Дивени, Имон Фэррен, МайАнна Бёринг, Уилсон Раджу-Пухальте, Адам Леви, Джои Бэти, Ларс Миккельсен и др.

    Описание

    Все события в этом телесериале происходят в придуманном мире, в котором обитают всевозможные чудовищные существа, а также очень опасные монстры. Наш главный герой -- ведьмак, охотившийся за кровожадными оборотнями, представляющих угрозу для жизни людей. В раннем детстве он пережил мутацию, в результате чего получил лучшие боевые навыки: повышенную силу, быструю реакцию. Основной его задачей было за оплату уничтожать кровожадных обитателей. Но другой раз он шел наперекор своим нанимателям. Геральт оставлял в живых драконов, которых почти не осталось на земле; монстров обладающих высоким интеллектом и вообще старался не вмешиваться в политические интриги чародеев и королей. Но однажды он все таки был вовлечен в противостояния между королевствами, чтобы защитить совсем юную княжну, на которой были сосредоточены интересы больших людей. По предсказанию только ее будущий потомок мог решить судьбу всего человечества. Цири тоже хорошо владела мечом и обладала магией, вот им двоим и пришлось преодолевать все тяжелые испытания, встречающиеся на их пути.

    Продолжительность: ~01: 00: 00 серия
    Качество видео: WEBRip
    Перевод: Многоголосый профессиональный - AMS (Adiós Muchachos Studio)
    Субтитры: русские, английские
    Реклама: присутствуют аудио вставки рекламы
    Видео: AVC/H.264, 3840x1920, ~37.3 Mbps
    Аудио #1: AC3, 6 ch, 640 Kbps - русский
    Аудио #2: AC3, 6 ch, 640 Kbps - английский
    General
    Unique ID : 87687163803763780977844070162334202866 (0x41F7EEF6A1CB00252B365992A693BBF2)
    Complete name : /The.Witcher.S01E01.2160p.WEBRip.AMS.mkv
    Format : Matroska
    Format version : Version 4
    File size : 16.5 GiB
    Duration : 1h 1mn
    Overall bit rate : 38.6 Mbps
    Movie name : The Witcher 1x01 - MVO AMS
    Encoded date : UTC 2019-12-24 18: 06: 19
    Writing application : mkvmerge v8.2.0 (\'World of Adventure\') 64bit
    Writing library : libebml v1.3.1 + libmatroska v1.4.2
    Video
    ID : 1
    Format : AVC
    Format/Info : Advanced Video Codec
    Format profile : High@L5.1
    Format settings : CABAC/6 Ref Frames
    Format settings, CABAC : Yes
    Format settings, ReFrames : 6 frames
    Codec ID : V_MPEG4/ISO/AVC
    Duration : 1h 1mn
    Bit rate : 37.3 Mbps
    Width : 3 840 pixels
    Height : 1 920 pixels
    Display aspect ratio : 2.000
    Frame rate mode : Constant
    Frame rate : 24.000 fps
    Color space : YUV
    Chroma subsampling : 4: 2: 0
    Bit depth : 8 bits
    Scan type : Progressive
    Bits/(Pixel*Frame) : 0.211
    Stream size : 15.9 GiB (97%)
    Title : The Witcher 1x01 - MVO AMS
    Writing library : x264 core 157 r2969 d4099dd
    Encoding settings : cabac=1/ref=6/deblock=1: -3: -3/analyse=0x3: 0x133/me=umh/subme=10/psy=1/psy_rd=1.00: 0.15/mixed_ref=1/me_range=48/chroma_me=1/trellis=2/8x8dct=1/cqm=0/deadzone=21, 11/fast_pskip=0/chroma_qp_offset=-3/threads=24/lookahead_threads=4/sliced_threads=0/nr=0/decimate=0/interlaced=0/bluray_compat=0/constrained_intra=0/bframes=8/b_pyramid=2/b_adapt=2/b_bias=0/direct=3/weightb=1/open_gop=0/weightp=2/keyint=250/keyint_min=24/scenecut=40/intra_refresh=0/rc=crf/mbtree=0/crf=18.0/qcomp=0.60/qpmin=0/qpmax=69/qpstep=4/ip_ratio=1.30/pb_ratio=1.20/aq=3: 0.80
    Language : English
    Default : Yes
    Forced : No
    Audio #1
    ID : 2
    Format : AC-3
    Format/Info : Audio Coding 3
    Commercial name : Dolby Digital
    Codec ID : A_AC3
    Duration : 1h 1mn
    Bit rate mode : Constant
    Bit rate : 640 Kbps
    Channel(s) : 6 channels
    Channel layout : L R C LFE Ls Rs
    Sampling rate : 48.0 KHz
    Frame rate : 31.250 fps (1536 SPF)
    Compression mode : Lossy
    Stream size : 280 MiB (2%)
    Title : MVO AMS
    Language : Russian
    Service kind : Complete Main
    Default : Yes
    Forced : No
    Audio #2
    ID : 3
    Format : AC-3
    Format/Info : Audio Coding 3
    Commercial name : Dolby Digital
    Codec ID : A_AC3
    Duration : 1h 1mn
    Bit rate mode : Constant
    Bit rate : 640 Kbps
    Channel(s) : 6 channels
    Channel layout : L R C LFE Ls Rs
    Sampling rate : 48.0 KHz
    Frame rate : 31.250 fps (1536 SPF)
    Compression mode : Lossy
    Stream size : 280 MiB (2%)
    Title : Original
    Language : English
    Service kind : Complete Main
    Default : No
    Forced : No
    Text #1
    ID : 4
    Format : UTF-8
    Codec ID : S_TEXT/UTF8
    Codec ID/Info : UTF-8 Plain Text
    Duration : 59mn 54s
    Bit rate : 64 bps
    Count of elements : 624
    Stream size : 28.1 KiB (0%)
    Title : Rus-Subs
    Language : Russian
    Default : No
    Forced : No
    Text #2
    ID : 5
    Format : UTF-8
    Codec ID : S_TEXT/UTF8
    Codec ID/Info : UTF-8 Plain Text
    Duration : 56mn 37s
    Bit rate : 43 bps
    Count of elements : 643
    Stream size : 18.0 KiB (0%)
    Title : Eng-Subs
    Language : English
    Default : No
    Forced : No
    Text #3
    ID : 6
    Format : UTF-8
    Codec ID : S_TEXT/UTF8
    Codec ID/Info : UTF-8 Plain Text
    Duration : 58mn 33s
    Bit rate : 46 bps
    Count of elements : 748
    Stream size : 20.0 KiB (0%)
    Title : Eng-Subs (SDH)
    Language : English
    Default : No
    Forced : No

    Скриншоты для ознакомления



    Все одноименные релизы в Клубе
    Время раздачи: 24/7 (до появления первых 3-5 скачавших)

    Онлайн видео Ведьмак



    Ведьмак / The Witcher (2019) WEBRip [H.264 / 2160p] [4K] (сезон 1, серии 1-8 из 8) AMS [AD] торрент скачать бесплатно
    Рейтинг →
     (голосов: 1, оценка 5/5, голосовать можно 1 раз )

    Другие торренты по теме:

  • Ведьмак 3: Дикая охота / The Witcher 3: Wild Hunt (2014) WEBRip [En]
  • The Witcher 2: Assassins of Kings / Ведьмак 2: Убийцы Королей (2011) GamePlayRip
  • The Witcher 2: Assassins of Kings / Ведьмак 2: Убийцы королей (2011) [Ru / Multi] (3.4.4.1) RePack R.G. Catalyst [Enhanced Edition] скачать через торрент бесплатно
  • Ведьмак 3: Дикая Охота / The Witcher 3: Wild Hunt (2015) [Ru / En] (1.03 / dlc) Repack R.G. Games скачать через торрент бесплатно
  • The Witcher 3: Wild Hunt / Ведьмак 3: Дикая Охота [Patch] (2015) (1.06) Official GOG скачать через торрент бесплатно
  • The Witcher 3: Wild Hunt / Ведьмак 3: Дикая Охота (2015) [Ru / Multi] (1.06 / dlc) License GOG скачать через торрент бесплатно
  • The Witcher 3: Wild Hunt / Ведьмак 3: Дикая Охота (2015) [Ru / Multi] (1.06 / dlc) Repack =nemos= скачать через торрент бесплатно
  • The Witcher / Ведьмак (2007) [Ru / Multi] (1.5.0.1304) Repack october2 [Enhanced Edition: Directors Cut / Полное издание] (GOG) скачать через торрент бесплатно


    • Комментарии (0):

      Информация

      Информация

        Посетители, находящиеся в группе Гости, не могут оставлять комментарии в данной новости.

        ↓ Меню




        ↓ Опрос

        Вы добавили сайт в закладки?
        Да
        Нет


        Популярное