.
Авторизация | Регистрация
bitok.xyz
Торрент скачать бесплатно Фильмы торрент скачать Юные преступники / The Young Offenders (2019) WEBRip [H.264 / 720p-LQ] (сезон 2, серии 1-6 из 6) Ozz [hand made 50fps] торрент скачать бесплатно


    Юные преступники / The Young Offenders (2019) WEBRip [H.264 / 720p-LQ] (сезон 2, серии 1-6 из 6) Ozz [hand made 50fps] торрент скачать бесплатно

    Дата: 27-01-2020, 05:00 | .torrent скачали: 1

    Юные преступники / The Young Offenders (2019) WEBRip [H.264 / 720p-LQ] (сезон 2, серии 1-6 из 6) Ozz [hand made 50fps]Производство: Великобритания, Ирландия/BBC, Vico Films, Rotator Production
    Жанр: комедия, криминал
    Режиссер: Питер Футт, Том Маршалл, Шон Уилсон

    Актеры
    Алекс Мёрфи, Крис Уолли, Хилари Роуз, Доминик Макхейл, П.Дж. Галлахер, Шэйн Кэйси, Орла Фицджералд, Росс Браун и др.

    Описание

    Старшеклассники Конор и Джок не любят школу. Они проворачивают знатные аферы и не мирятся с действующими правилами. Каждый новый день для них - очередное приключение. Трудные учебные будни и не менее сложная семейная жизнь заставляет парней придумывать развлечения для самих себя. Правда, пускаясь в очередное приключение, они обрекают себя на серьезные проблемы. Выпутываться предстоит, как это обычно бывает, в весьма комичной обстановке, ведь никто не воспринимает серьезно главных персонажей, однако те порой ведут себя крайне вызывающе! Юные хулиганы готовы к реализации очередной авантюрной идеи.

    Возраст: 18+ (зрителям, достигшим 18 лет. запрещено для детей)
    Продолжительность: ~00: 30: 00 серия
    Качество видео: WEBRip
    Перевод: Многоголосый профессиональный (Ozz)
    Субтитры: русские, английские
    Внимание! Присутствует ненормативная лексика.
    Видео: AVC, 1280x720 (16: 9), ~4882 kbps, 50.000 fps
    Аудио 1 : AC3, 2 ch, 192 kbps - русский
    Аудио 2 : AC3, 2 ch, 192 kbps - английский
    General
    Unique ID : 251923533861821903297017951400773132883 (0xBD86B52F7FD94067A089BF7888B1A253)
    Complete name : H: DownloadsNew HD filmsХулиганьё. Сериал. Ozz (WEBRip 720p)2 Сезон (2019)The.Young.Offenders.s02e04. Эпизод 4.mkv
    Format : Matroska
    Format version : Version 2
    File size : 1.11 GiB
    Duration : 29 min 32 s
    Overall bit rate : 5 372 kb/s
    Encoded date : UTC 2019-12-08 08: 46: 29
    Writing application : mkvmerge v6.9.1 (\'Blue Panther\') 32bit built on Apr 18 2014 18: 15: 44
    Writing library : libebml v1.3.0 + libmatroska v1.4.1
    Video
    ID : 1
    Format : AVC
    Format/Info : Advanced Video Codec
    Format profile : High@L3.2
    Format settings : CABAC/4 Ref Frames
    Format settings, CABAC : Yes
    Format settings, ReFrames : 4 frames
    Codec ID : V_MPEG4/ISO/AVC
    Duration : 29 min 32 s
    Bit rate : 4 882 kb/s
    Width : 1 280 pixels
    Height : 720 pixels
    Display aspect ratio : 16: 9
    Frame rate mode : Constant
    Frame rate : 50.000 FPS
    Color space : YUV
    Chroma subsampling : 4: 2: 0
    Bit depth : 8 bits
    Scan type : Progressive
    Bits/(Pixel*Frame) : 0.106
    Stream size : 1.01 GiB (91%)
    Language : English
    Default : Yes
    Forced : No
    Color range : Limited
    Color primaries : BT.709
    Transfer characteristics : BT.709
    Matrix coefficients : BT.709
    Audio #1
    ID : 2
    Format : AC-3
    Format/Info : Audio Coding 3
    Commercial name : Dolby Digital
    Codec ID : A_AC3
    Duration : 29 min 32 s
    Bit rate mode : Constant
    Bit rate : 192 kb/s
    Channel(s) : 2 channels
    Channel layout : L R
    Sampling rate : 48.0 kHz
    Frame rate : 31.250 FPS (1536 SPF)
    Bit depth : 16 bits
    Compression mode : Lossy
    Delay relative to video : -20 ms
    Stream size : 40.6 MiB (4%)
    Language : Russian
    Service kind : Complete Main
    Default : Yes
    Forced : No
    Audio #2
    ID : 3
    Format : AC-3
    Format/Info : Audio Coding 3
    Commercial name : Dolby Digital
    Codec ID : A_AC3
    Duration : 29 min 32 s
    Bit rate mode : Constant
    Bit rate : 192 kb/s
    Channel(s) : 2 channels
    Channel layout : L R
    Sampling rate : 48.0 kHz
    Frame rate : 31.250 FPS (1536 SPF)
    Bit depth : 16 bits
    Compression mode : Lossy
    Delay relative to video : -20 ms
    Stream size : 40.6 MiB (4%)
    Language : English
    Service kind : Complete Main
    Default : No
    Forced : No
    Text #1
    ID : 4
    Format : UTF-8
    Codec ID : S_TEXT/UTF8
    Codec ID/Info : UTF-8 Plain Text
    Language : Russian
    Default : No
    Forced : No
    Text #2
    ID : 5
    Format : UTF-8
    Codec ID : S_TEXT/UTF8
    Codec ID/Info : UTF-8 Plain Text
    Language : English
    Default : No
    Forced : No

    Скриншоты для ознакомления



    Все одноименные релизы в Клубе
    Время раздачи: 247

    Онлайн видео Юные преступники



    Юные преступники / The Young Offenders (2019) WEBRip [H.264 / 720p-LQ] (сезон 2, серии 1-6 из 6) Ozz [hand made 50fps] торрент скачать бесплатно
    Рейтинг →
     (голосов: 1, оценка 4/5, голосовать можно 1 раз )

    Другие торренты по теме:

  • Юные преступники / The Young Offenders (2016) WEB-DLRip
  • Юные преступники / The Young Offenders (2018) WEB-DLRip (сезон 1, серии 1-6 из 6) Sunshine Studio [AD] [PR]
  • Юные преступники / The Young Offenders (2018) WEBRip [H.264 / 720p-LQ] (сезон 1, серии 1-6 из 6) Cheese Studio [AD]


    • Комментарии (0):

      Информация

      Информация

        Посетители, находящиеся в группе Гости, не могут оставлять комментарии в данной новости.

        ↓ Меню




        ↓ Опрос

        Вы добавили сайт в закладки?
        Да
        Нет


        Популярное