.
Авторизация | Регистрация
bitok.xyz
Торрент скачать бесплатно Фильмы торрент скачать Новый Папа / The New Pope (2020) HDTV [H.264 / 1080i-LQ] (сезон 1, серии 1-4 из 10) Greb&CGC (обновляемая) торрент скачать бесплатно


    Новый Папа / The New Pope (2020) HDTV [H.264 / 1080i-LQ] (сезон 1, серии 1-4 из 10) Greb&CGC (обновляемая) торрент скачать бесплатно

    Дата: 27-01-2020, 05:00 | .torrent скачали: 1

    Новый Папа / The New Pope (2020) HDTV [H.264 / 1080i-LQ] (сезон 1, серии 1-4 из 10) Greb&CGC (обновляемая)Производство: Италия, Франция, Испания, США/Wildside, Haut et Court, Mediapro
    Жанр: драма
    Режиссер: Паоло Соррентино

    Актеры
    Джуд Лоу, Джон Малкович, Сильвио Орландо, Сесиль Де Франс, Хавьер Камара, Людивин Санье, Маурицио Ломбарди, Марк Иванир, Генри Гудман, Массимо Гини и др.

    Описание

    Ленни Белардо впал в кому, так что кардиналам ничего не остаётся, кроме как выбрать нового понтифика, им становится Иоанн Павел III. Он уже готов повести католическую церковь в нужном, как видится кардиналам, направлении, когда Ленни приходит в себя, и миллиарды католиков оказываются в непростой ситуации.

    Дата мировой премьеры: 10 января 2020
    Продолжительность: ~ 01: 00: 00 серия
    Качество видео: HDTV
    Перевод: Многоголосый профессиональный -GrebCGC (По заказу Amedia)
    Видео: AVC/H.264, 1920x1080, ~5641 Kbps
    Аудио: AC3, 6 ch, 384 Kbps - русский
    Общее
    Уникальный идентификатор : 223792702534130286996630440008267942000 (0xA85CE81E7267664D93FBE9D212D14870)
    Полное имя : /Volumes/HDD/Movies/NNMC/The New Pope.2020.HDTV.1080i.Amedia/The New Pope.S01E01.HDTV.1080i.Amedia.mkv
    Формат : Matroska
    Версия формата : Version 4
    Размер файла : 2, 47 Гбайт
    Продолжительность : 58 м. 46 с.
    Общий поток : 6028 Кбит/сек
    Название фильма : The New Pope.S01E01.HDTV.1080i.Amedia
    Дата кодирования : UTC 2020-01-13 07: 27: 26
    Программа кодирования : mkvmerge v8.0.0 (\'Til The Day That I Die\') 64bit
    Библиотека кодирования : libebml v1.3.1 + libmatroska v1.4.2
    Видео
    Идентификатор : 1
    Формат : AVC
    Формат/Информация : Advanced Video Codec
    Профиль формата : High@L4
    Настройки формата : CABAC/4 Ref Frames
    Параметр CABAC формата : Да
    Параметр ReFrames формата : 4 кадра
    Идентификатор кодека : V_MPEG4/ISO/AVC
    Продолжительность : 58 м. 46 с.
    Битрейт : 5641 Кбит/сек
    Ширина : 1920 пикселей
    Высота : 1080 пикселей
    Соотношение сторон : 16: 9
    Режим частоты кадров : Переменный
    Частота кадров : 50, 000 кадров/сек
    Частота кадров в оригинале : 25, 000 кадров/сек
    Стандарт вещания : Component
    Цветовое пространство : YUV
    Субдискретизация насыщенности : 4: 2: 0
    Битовая глубина : 8 бит
    Тип развёртки : Чересстрочная
    Метод сохранения типа развёртки : Раздельные поля
    Порядок развёртки : Верхнее поле первое
    Бит/(Пиксели*Кадры) : 0.054
    Размер потока : 2, 32 Гбайт (94%)
    Заголовок : The New Pope.s01e01
    Язык : English
    Default : Да
    Forced : Нет
    Цветовой диапазон : Limited
    Основные цвета : BT.709
    Характеристики трансфера : BT.709
    Коэффициенты матрицы : BT.709
    Аудио
    Идентификатор : 2
    Формат : AC-3
    Формат/Информация : Audio Coding 3
    Коммерческое название : Dolby Digital
    Идентификатор кодека : A_AC3
    Продолжительность : 58 м. 46 с.
    Вид битрейта : Постоянный
    Битрейт : 384 Кбит/сек
    Каналы : 6 каналов
    Channel layout : L R C LFE Ls Rs
    Частота : 48, 0 КГц
    Частота кадров : 31, 250 кадров/сек (1536 SPF)
    Метод сжатия : С потерями
    Размер потока : 161 Мбайт (6%)
    Заголовок : Amedia GrebCGC
    Язык : Russian
    Service kind : Complete Main
    Default : Да
    Forced : Нет

    Скриншоты для ознакомления



    Все одноименные релизы в Клубе
    Время раздачи: 24/7 (круглосуточно) (до появления первых 3-5 скачавших)

    Онлайн видео Новый Папа



    Новый Папа / The New Pope (2020) HDTV [H.264 / 1080i-LQ] (сезон 1, серии 1-4 из 10) Greb&CGC (обновляемая) торрент скачать бесплатно
    Рейтинг →
     (голосов: 1, оценка 5/5, голосовать можно 1 раз )

    Другие торренты по теме:

  • Новый Папа / The New Pope (2020) WEBRip [H.264 / 1080p-LQ] (сезон 1, серии 1-2 из 10) (обновляемая) [AD] HDRezka Studio
  • Новый Папа / The New Pope (2020) WEB-DLRip (сезон 1, серии 1 из 10) LostFilm (обновляемая)
  • Новый Папа / The New Pope (2020) WEB-DLRip (сезон 1, серии 1-6 из 10) Кравец (обновляемая)
  • Здравствуй, папа, Новый год / Daddys Home (2015) CamRip
  • Здравствуй, папа, Новый год / Daddys Home (2015) BDRemux [H.264 / 1080p] [EN / EN, Fr, Sp, Po Sub]
  • Здравствуй, папа, Новый год / Daddys Home (2015) HDRip [Line]
  • Здравствуй, папа, Новый год / Daddys Home (2015) BDRip [H.264] [Line]
  • Здравствуй, папа, Новый год / Daddys Home (2015) BDRip [H.264 / 1080p] [Line]


    • Комментарии (0):

      Информация

      Информация

        Посетители, находящиеся в группе Гости, не могут оставлять комментарии в данной новости.

        ↓ Меню




        ↓ Опрос

        Вы добавили сайт в закладки?
        Да
        Нет


        Популярное