ВАЖНО! Сайт скоро заблокируют! Подписывайся на наш канал в Telegram https://t.me/torrentok и получи доступ к торрентам без ограничений!
.
Авторизация | Регистрация
bitok.xyz
Торрент скачать бесплатно Фильмы торрент скачать Волшебники / The Magicians (2020) WEB-DL [H.264 / 720p-LQ] (сезон 5, серия 1 из 13) Lostfilm (обновляемая) торрент скачать бесплатно


    Волшебники / The Magicians (2020) WEB-DL [H.264 / 720p-LQ] (сезон 5, серия 1 из 13) Lostfilm (обновляемая) торрент скачать бесплатно

    Дата: 27-01-2020, 05:00 | .torrent скачали: 1

    Волшебники / The Magicians (2020) WEB-DL [H.264 / 720p-LQ] (сезон 5, серия 1 из 13) Lostfilm (обновляемая)Производство: США/Groundswell Productions, NBC Universal Television, Universal Cable Productions
    Жанр: фэнтези, драма, детектив
    Режиссер: Крис Фишер, Джеймс Л. Конуэй, Джон Скотт

    Актеры
    Хейл Эйплмен, Стелла Маив, Арджун Гупта, Саммер Бишил, Джейсон Ральф, Оливия Тейлор Дадли, Джейд Тейлор, Рик Уорси, Бриттани Каррен, Тревор Эйнхорн и др.

    Описание

    Жизнь Квентина Колдвотера (Джейсон Ральф) и Джулии Уикер (Стелла Маив) переворачивается с ног на голову, когда им выпадает шанс пройти собеседование в секретный университет Брейкбиллс. К своему удивлению они обнаруживают, что вместо привычного экзамена им предлагают выполнить тест на магические способности. Молодые люди начинают догадываться, что по соседству с обычными людьми в Нью-Йорке живут волшебники и чародеи. Квентин успешно проходит испытание, но его подруге не удается произвести впечатление на преподавателей университета. Они решают стереть ее память о собеседовании, однако сама судьба противится тому, чтобы Джулия окончательно распрощалась с миром волшебства. Тем временем в стенах Брейкбиллса Колдуотер начинает постигать секреты магического искусства и развивать свои удивительные способности. Квентин еще не знает, что мир магии, который представляется всем волшебным и притягательным, скрывает ужасные тайны...

    Возраст: 16+ (зрителям, достигшим 16 лет)
    Релиз от: EniaHD
    Продолжительность: ~00: 45: 00 серия
    Качество видео: WEB-DL
    Перевод: Многоголосый профессиональный (Lostfilm)
    Субтитры: Русские (Forced, Full | Ненормативная лексика), английские (Full, SDH)
    Реклама: Отсутствует
    Видео: AVC/H.264, 1280x720 (16: 9), ~3090 kbps
    Аудио 1: AC3, 6 ch, 640 kbps - русский
    Аудио 2: E-AC3, 6 ch, 640 kbps - английский
    General
    Unique ID : 163717471697795899259947271641892392355 (0x7B2AD68EC8C7C8A13473001DA1D80DA3)
    Complete name : D: ФильмыThe.Magicians.S05.720p.WEB-DL.Rus.Eng.EniaHDThe.Magicians.S05E01.Do.Something.Crazy.720p.WEB-DL.Rus.Eng.EniaHD.mkv
    Format : Matroska
    Format version : Version 4
    File size : 1.40 GiB
    Duration : 45 min 40 s
    Overall bit rate : 4 399 kb/s
    Movie name : Соверши что-то безумное
    Encoded date : UTC 2020-01-18 12: 40: 57
    Writing application : mkvmerge v42.0.0 (\'Overtime\') 64-bit
    Writing library : libebml v1.3.10 + libmatroska v1.5.2
    Attachments : poster.the-magicians-s5.png
    Video
    ID : 1
    Format : AVC
    Format/Info : Advanced Video Codec
    Format profile : High@L3.1
    Format settings : CABAC/4 Ref Frames
    Format settings, CABAC : Yes
    Format settings, ReFrames : 4 frames
    Codec ID : V_MPEG4/ISO/AVC
    Duration : 45 min 40 s
    Bit rate mode : Constant
    Bit rate : 3 090 kb/s
    Nominal bit rate : 6 000 kb/s
    Width : 1 280 pixels
    Height : 720 pixels
    Display aspect ratio : 16: 9
    Frame rate mode : Constant
    Frame rate : 23.976 (24000/1001) FPS
    Color space : YUV
    Chroma subsampling : 4: 2: 0
    Bit depth : 8 bits
    Scan type : Progressive
    Bits/(Pixel*Frame) : 0.140
    Stream size : 1 010 MiB (70%)
    Title : The.Magicians.S05E01.Do.Something.Crazy.720p.WEB-DL.Rus.Eng.EniaHD
    Language : English
    Default : Yes
    Forced : No
    Color range : Limited
    Color primaries : BT.709
    Transfer characteristics : BT.709
    Matrix coefficients : BT.709
    Audio #1
    ID : 2
    Format : AC-3
    Format/Info : Audio Coding 3
    Commercial name : Dolby Digital
    Codec ID : A_AC3
    Duration : 45 min 40 s
    Bit rate mode : Constant
    Bit rate : 640 kb/s
    Channel(s) : 6 channels
    Channel layout : L R C LFE Ls Rs
    Sampling rate : 48.0 kHz
    Frame rate : 31.250 FPS (1536 SPF)
    Bit depth : 16 bits
    Compression mode : Lossy
    Stream size : 209 MiB (15%)
    Title : AC3 5.1 @ 640 kbps - MVO, LostFilm
    Language : Russian
    Service kind : Complete Main
    Default : Yes
    Forced : No
    Audio #2
    ID : 3
    Format : E-AC-3
    Format/Info : Enhanced AC-3
    Commercial name : Dolby Digital Plus
    Codec ID : A_EAC3
    Duration : 45 min 40 s
    Bit rate mode : Constant
    Bit rate : 640 kb/s
    Channel(s) : 6 channels
    Channel layout : L R C LFE Ls Rs
    Sampling rate : 48.0 kHz
    Frame rate : 31.250 FPS (1536 SPF)
    Compression mode : Lossy
    Stream size : 209 MiB (15%)
    Title : E-AC3 5.1 @ 640 kbps - Original
    Language : English
    Service kind : Complete Main
    Default : No
    Forced : No
    Text #1
    ID : 4
    Format : UTF-8
    Codec ID : S_TEXT/UTF8
    Codec ID/Info : UTF-8 Plain Text
    Duration : 1 s 948 ms
    Bit rate : 147 b/s
    Count of elements : 1
    Stream size : 36.0 Bytes (0%)
    Title : Forced
    Language : Russian
    Default : Yes
    Forced : Yes
    Text #2
    ID : 5
    Format : UTF-8
    Codec ID : S_TEXT/UTF8
    Codec ID/Info : UTF-8 Plain Text
    Duration : 41 min 26 s
    Bit rate : 125 b/s
    Count of elements : 806
    Stream size : 38.2 KiB (0%)
    Title : Full
    Language : Russian
    Default : No
    Forced : No
    Text #3
    ID : 6
    Format : UTF-8
    Codec ID : S_TEXT/UTF8
    Codec ID/Info : UTF-8 Plain Text
    Duration : 43 min 41 s
    Bit rate : 80 b/s
    Count of elements : 856
    Stream size : 25.8 KiB (0%)
    Title : Full
    Language : English
    Default : No
    Forced : No
    Text #4
    ID : 7
    Format : UTF-8
    Codec ID : S_TEXT/UTF8
    Codec ID/Info : UTF-8 Plain Text
    Duration : 44 min 0 s
    Bit rate : 82 b/s
    Count of elements : 913
    Stream size : 26.6 KiB (0%)
    Title : Full SDH
    Language : English
    Default : No
    Forced : No


    Онлайн видео Волшебники



    Волшебники / The Magicians (2020) WEB-DL [H.264 / 720p-LQ] (сезон 5, серия 1 из 13) Lostfilm (обновляемая) торрент скачать бесплатно
    Рейтинг →
     (голосов: 1, оценка 3/5, голосовать можно 1 раз )

    Другие торренты по теме:

  • Волшебники / The Magicians (2016) HDTVRip (сезон 1, серии 1 из 13) BaibaKo (обновляемая) скачать через торрент бесплатно
  • Волшебники / The Magicians (2016) HDTVRip (сезон 1, серии 1 из 13) LostFilm (обновляемая) скачать через торрент бесплатно
  • Волшебники / The Magicians (2015) HDTV [H.264 / 720p-LQ] (сезон 1, серии 1 из 12) BaibaKo (обновляемая)
  • Волшебники / The Magicians (2015) HDTVRip [H.264] (сезон 1, серии 1 из 12) BaibaKo [MP4|720x400]
  • Волшебники / The Magicians (2015) HDTVRip [H.264] (сезон 1, серии 1 из 12) LostFilm [MP4|1280x720]
  • Волшебники / The Magicians (2017) HDTVRip [H.264 / 720p-LQ] (сезон 2, серии 1 из 13) Jaskier (обновляемая)
  • Волшебники / The Magicians (2017) WEB-DL [H.264 / 720p-LQ] (сезон 2, серии 1-13 из 13) Jaskier
  • Волшебники / The Magicians (2018) WEB-DLRip [H.264 / 1080p-LQ] (сезон 3, серии 1-4 из 13) Baibako (обновляемая) [AD]


    • Комментарии (0):

      Информация

      Информация

        Посетители, находящиеся в группе Гости, не могут оставлять комментарии в данной новости.

        ↓ Меню




        Популярное