.
Авторизация | Регистрация
bitok.xyz
Торрент скачать бесплатно Фильмы торрент скачать Дракула / Dracula (2020) WEB-DLRip [H.264] (сезон 1, серии 1-3 из 3) Невафильм, NewStudio, Jaskier, AlexFilm торрент скачать бесплатно


    Дракула / Dracula (2020) WEB-DLRip [H.264] (сезон 1, серии 1-3 из 3) Невафильм, NewStudio, Jaskier, AlexFilm торрент скачать бесплатно

    Дата: 27-01-2020, 05:01 | .torrent скачали: 0

    Дракула / Dracula (2020) WEB-DLRip [H.264] (сезон 1, серии 1-3 из 3) Невафильм, NewStudio, Jaskier, AlexFilmПроизводство: Великобритания/BBC Television Centre, Hartswood Films, Netflix
    Жанр: ужасы, драма
    Режиссер: Джонни Кэмпбелл, Пол МакГиган, Дэймон Томас

    Актеры
    Клас Банг, Долли Уэллс, Морфидд Кларк, Джонатан Арис, Джон Хеффернан, Лидия Уэст, Мэттью Бирд, Саша Дхаван, Марк Гейтисс, Джоэнна Скэнлэн и др.

    Описание

    Трансильвания, 1897 год. В женском монастыре нашёл приют обессиленный Джонатан Харкер, которому удалось сбежать из замка графа Дракулы. Большой интерес к произошедшему проявляет сестра Агата — тщательно изучив записи Джонатана, она просит рассказать его историю во всех подробностях. Некоторое время назад молодой британец прибыл в замок эксцентричного пожилого румынского аристократа, чтобы тот подписал бумаги о приобретённой им в Лондоне недвижимости. Парень собирался отбыть на следующий день, но граф фактически заключил его в плен: выбраться из бесконечных лабиринтов замка оказывается не так просто, по ночам Джонатана мучают кошмары, и чем хуже он себя чувствует, тем моложе становится Дракула.

    Дата мировой премьеры: 1 января 2020
    Продолжительность: ~01: 30: 00 серия
    Качество видео: WEB-DLRip
    Перевод: Дублированный, многоголосый профессиональный
    Субтитры: русские, английские
    Видео: AVC/H.264, 1024х576 (16: 9), ~2363 kbps
    Аудио 1: AC3, 6 ch, 448 Kbps - русский (дублированный, Невафильм)
    Аудио 2: AC3, 6 ch, 448 Kbps - русский (многоголосый закадровый, NewStudio)
    Аудио 3: AC3, 6 ch, 448 Kbps - русский (многоголосый закадровый, Jaskier)
    Аудио 4: AC3, 6 ch, 448 Kbps - русский (многоголосый закадровый, AlexFilm)
    Аудио 5: AC3, 6 ch, 448 Kbps - английскийGeneral
    Unique ID : 195634864520891805906422532162706560252 (0x932DE785198FDD739AB37B19785554FC)
    Complete name : G: DOWNLOADSДракула (01 сезон любимого сериала) (2020) WEB-DLRip H.264Дракула - 01 серия.mkv
    Format : Matroska
    Format version : Version 2
    File size : 2.87 GiB
    Duration : 1 h 29 min
    Overall bit rate : 4 586 kb/s
    Encoded date : UTC 2020-01-19 07: 07: 58
    Writing application : mkvmerge v7.8.0 (\'River Man\') 32bit built on Apr 3 2015 12: 11: 22
    Writing library : libebml v1.3.1 + libmatroska v1.4.2
    Video
    ID : 1
    Format : AVC
    Format/Info : Advanced Video Codec
    Format profile : High@L4.1
    Format settings : CABAC/10 Ref Frames
    Format settings, CABAC : Yes
    Format settings, ReFrames : 10 frames
    Codec ID : V_MPEG4/ISO/AVC
    Duration : 1 h 29 min
    Bit rate : 2 363 kb/s
    Width : 1 024 pixels
    Height : 576 pixels
    Display aspect ratio : 16: 9
    Frame rate mode : Constant
    Frame rate : 25.000 FPS
    Color space : YUV
    Chroma subsampling : 4: 2: 0
    Bit depth : 8 bits
    Scan type : Progressive
    Bits/(Pixel*Frame) : 0.160
    Stream size : 1.41 GiB (49%)
    Writing library : x264 core 146 r2538 121396c
    Encoding settings : cabac=1/ref=10/deblock=1: -3: -3/analyse=0x3: 0x133/me=umh/subme=11/psy=1/psy_rd=0.95: 0.05/mixed_ref=1/me_range=64/chroma_me=1/trellis=2/8x8dct=1/cqm=0/deadzone=21, 11/fast_pskip=0/chroma_qp_offset=-3/threads=12/lookahead_threads=3/sliced_threads=0/nr=0/decimate=0/interlaced=0/bluray_compat=0/constrained_intra=0/bframes=10/b_pyramid=2/b_adapt=2/b_bias=0/direct=3/weightb=1/open_gop=0/weightp=2/keyint=250/keyint_min=25/scenecut=40/intra_refresh=0/rc_lookahead=40/rc=2pass/mbtree=0/bitrate=2363/ratetol=1.0/qcomp=0.60/qpmin=0/qpmax=69/qpstep=4/cplxblur=20.0/qblur=0.5/vbv_maxrate=50000/vbv_bufsize=62500/nal_hrd=none/filler=0/ip_ratio=1.40/pb_ratio=1.30/aq=1: 1.00
    Default : Yes
    Forced : No
    Audio #1
    ID : 2
    Format : AC-3
    Format/Info : Audio Coding 3
    Commercial name : Dolby Digital
    Codec ID : A_AC3
    Duration : 1 h 29 min
    Bit rate mode : Constant
    Bit rate : 448 kb/s
    Channel(s) : 6 channels
    Channel layout : L R C LFE Ls Rs
    Sampling rate : 48.0 kHz
    Frame rate : 31.250 FPS (1536 SPF)
    Bit depth : 16 bits
    Compression mode : Lossy
    Stream size : 287 MiB (10%)
    Title : Невафильм
    Language : Russian
    Service kind : Complete Main
    Default : Yes
    Forced : No
    Audio #2
    ID : 3
    Format : AC-3
    Format/Info : Audio Coding 3
    Commercial name : Dolby Digital
    Codec ID : A_AC3
    Duration : 1 h 29 min
    Bit rate mode : Constant
    Bit rate : 448 kb/s
    Channel(s) : 6 channels
    Channel layout : L R C LFE Ls Rs
    Sampling rate : 48.0 kHz
    Frame rate : 31.250 FPS (1536 SPF)
    Bit depth : 16 bits
    Compression mode : Lossy
    Stream size : 287 MiB (10%)
    Title : NewStudio
    Language : Russian
    Service kind : Complete Main
    Default : No
    Forced : No
    Audio #3
    ID : 4
    Format : AC-3
    Format/Info : Audio Coding 3
    Commercial name : Dolby Digital
    Codec ID : A_AC3
    Duration : 1 h 29 min
    Bit rate mode : Constant
    Bit rate : 448 kb/s
    Channel(s) : 6 channels
    Channel layout : L R C LFE Ls Rs
    Sampling rate : 48.0 kHz
    Frame rate : 31.250 FPS (1536 SPF)
    Bit depth : 16 bits
    Compression mode : Lossy
    Stream size : 287 MiB (10%)
    Title : Jaskier
    Language : Russian
    Service kind : Complete Main
    Default : No
    Forced : No
    Audio #4
    ID : 5
    Format : AC-3
    Format/Info : Audio Coding 3
    Commercial name : Dolby Digital
    Codec ID : A_AC3
    Duration : 1 h 29 min
    Bit rate mode : Constant
    Bit rate : 448 kb/s
    Channel(s) : 6 channels
    Channel layout : L R C LFE Ls Rs
    Sampling rate : 48.0 kHz
    Frame rate : 31.250 FPS (1536 SPF)
    Bit depth : 16 bits
    Compression mode : Lossy
    Stream size : 287 MiB (10%)
    Title : AlexFilm
    Language : Russian
    Service kind : Complete Main
    Default : No
    Forced : No
    Audio #5
    ID : 6
    Format : AC-3
    Format/Info : Audio Coding 3
    Commercial name : Dolby Digital
    Codec ID : A_AC3
    Duration : 1 h 29 min
    Bit rate mode : Constant
    Bit rate : 448 kb/s
    Channel(s) : 6 channels
    Channel layout : L R C LFE Ls Rs
    Sampling rate : 48.0 kHz
    Frame rate : 31.250 FPS (1536 SPF)
    Bit depth : 16 bits
    Compression mode : Lossy
    Stream size : 287 MiB (10%)
    Title : Original
    Language : English
    Service kind : Complete Main
    Default : No
    Forced : No
    Text #1
    ID : 7
    Format : UTF-8
    Codec ID : S_TEXT/UTF8
    Codec ID/Info : UTF-8 Plain Text
    Language : Russian
    Default : Yes
    Forced : No
    Text #2
    ID : 8
    Format : UTF-8
    Codec ID : S_TEXT/UTF8
    Codec ID/Info : UTF-8 Plain Text
    Language : English
    Default : No
    Forced : No
    Скриншоты для ознакомления


    Все одноименные релизы в Клубе
    Время раздачи: 24/7 (до появления первых 3-5 скачавших)

    Онлайн видео Дракула



    Дракула / Dracula (2020) WEB-DLRip [H.264] (сезон 1, серии 1-3 из 3) Невафильм, NewStudio, Jaskier, AlexFilm торрент скачать бесплатно
    Рейтинг →
     (голосов: 1, оценка 3/5, голосовать можно 1 раз )

    Другие торренты по теме:

  • Дракула / Dracula Untold (2014) WEBRip [1080p] [Трейлер]
  • Дракула / Dracula Untold (2014) WEBRip [H.264 / 720p-LQ] [Трейлер]
  • Дракула / Dracula Untold (2014) CamRip [EN]
  • Дракула / Dracula Untold (2014) CamRip скачать через торрент бесплатно
  • Дракула / Dracula Untold (2014) WEBRip [Звук с CAMRip] скачать через торрент бесплатно
  • Дракула / Dracula Untold (2014) WEBRip [H.264 / 720p-LQ] [Звук с CAMRip] скачать через торрент бесплатно
  • Дракула / Dracula Untold (2014) WEBRip [Line] скачать через торрент бесплатно
  • Дракула / Dracula Untold (2014) WEBRip [H.264 / 720p-LQ] [Line] скачать через торрент бесплатно


    • Комментарии (0):

      Информация

      Информация

        Посетители, находящиеся в группе Гости, не могут оставлять комментарии в данной новости.

        ↓ Меню




        ↓ Опрос

        Вы добавили сайт в закладки?
        Да
        Нет


        Популярное