.
Авторизация | Регистрация
bitok.xyz
Торрент скачать бесплатно Фильмы торрент скачать Дракула / Dracula (2020) WEB-DLRip (сезон 1, серии 1-3 из 3) Невафильм, NewStudio, Jaskier, AlexFilm торрент скачать бесплатно


    Дракула / Dracula (2020) WEB-DLRip (сезон 1, серии 1-3 из 3) Невафильм, NewStudio, Jaskier, AlexFilm торрент скачать бесплатно

    Дата: 27-01-2020, 05:01 | .torrent скачали: 3

    Дракула / Dracula (2020) WEB-DLRip (сезон 1, серии 1-3 из 3) Невафильм, NewStudio, Jaskier, AlexFilmПроизводство: Великобритания/BBC Television Centre, Hartswood Films, Netflix
    Жанр: ужасы, драма
    Режиссер: Джонни Кэмпбелл, Пол МакГиган, Дэймон Томас

    Актеры
    Клас Банг, Долли Уэллс, Морфидд Кларк, Джонатан Арис, Джон Хеффернан, Лидия Уэст, Мэттью Бирд, Саша Дхаван, Марк Гейтисс, Джоэнна Скэнлэн и др.

    Описание

    Трансильвания, 1897 год. В женском монастыре нашёл приют обессиленный Джонатан Харкер, которому удалось сбежать из замка графа Дракулы. Большой интерес к произошедшему проявляет сестра Агата — тщательно изучив записи Джонатана, она просит рассказать его историю во всех подробностях. Некоторое время назад молодой британец прибыл в замок эксцентричного пожилого румынского аристократа, чтобы тот подписал бумаги о приобретённой им в Лондоне недвижимости. Парень собирался отбыть на следующий день, но граф фактически заключил его в плен: выбраться из бесконечных лабиринтов замка оказывается не так просто, по ночам Джонатана мучают кошмары, и чем хуже он себя чувствует, тем моложе становится Дракула.

    Дата мировой премьеры: 1 января 2020
    Продолжительность: ~01: 30: 00 серия
    Качество видео: WEB-DLRip
    Перевод: Дублированный, многоголосый профессиональный
    Видео: XVID, 704х400 (16: 9), ~1888 kbps
    Аудио 1: AC3, 6 ch, 448 Kbps - русский (дублированный, Невафильм)
    Аудио 2: AC3, 6 ch, 448 Kbps - русский (многоголосый закадровый, NewStudio)
    Аудио 3: AC3, 6 ch, 448 Kbps - русский (многоголосый закадровый, Jaskier)
    Аудио 4: AC3, 6 ch, 448 Kbps - русский (многоголосый закадровый, AlexFilm)
    Аудио 5: AC3, 6 ch, 448 Kbps - английскийGeneral
    Complete name : G: DOWNLOADSДракула (01 сезон любимого сериала) (2020) WEB-DLRipДракула - 01 серия.avi
    Format : AVI
    Format/Info : Audio Video Interleave
    Format profile : OpenDML
    File size : 2.58 GiB
    Duration : 1 h 28 min
    Overall bit rate : 4 163 kb/s
    Writing application : VirtualDubMod 1.5.10.3 |www.virtualdub-fr.org|| (build 2550/release)
    Writing library : VirtualDubMod build 2550/release
    Video
    ID : 0
    Format : MPEG-4 Visual
    Format profile : Advanced Simple@L5
    Format settings : BVOP2/Custom Matrix
    Format settings, BVOP : 2
    Format settings, QPel : No
    Format settings, GMC : No warppoints
    Format settings, Matrix : Custom
    Codec ID : XVID
    Codec ID/Hint : XviD
    Duration : 1 h 28 min
    Bit rate : 1 888 kb/s
    Width : 704 pixels
    Height : 400 pixels
    Display aspect ratio : 16: 9
    Frame rate : 25.000 FPS
    Color space : YUV
    Chroma subsampling : 4: 2: 0
    Bit depth : 8 bits
    Scan type : Progressive
    Compression mode : Lossy
    Bits/(Pixel*Frame) : 0.268
    Stream size : 1.17 GiB (45%)
    Writing library : XviD 73
    Audio #1
    ID : 1
    Format : AC-3
    Format/Info : Audio Coding 3
    Commercial name : Dolby Digital
    Codec ID : 2000
    Duration : 1 h 28 min
    Bit rate mode : Constant
    Bit rate : 448 kb/s
    Channel(s) : 6 channels
    Channel layout : L R C LFE Ls Rs
    Sampling rate : 48.0 kHz
    Frame rate : 31.250 FPS (1536 SPF)
    Bit depth : 16 bits
    Compression mode : Lossy
    Stream size : 285 MiB (11%)
    Alignment : Split accross interleaves
    Interleave, duration : 40 ms (1.00 video frame)
    Interleave, preload duratio : 500 ms
    Service kind : Complete Main
    Audio #2
    ID : 2
    Format : AC-3
    Format/Info : Audio Coding 3
    Commercial name : Dolby Digital
    Codec ID : 2000
    Duration : 1 h 28 min
    Bit rate mode : Constant
    Bit rate : 448 kb/s
    Channel(s) : 6 channels
    Channel layout : L R C LFE Ls Rs
    Sampling rate : 48.0 kHz
    Frame rate : 31.250 FPS (1536 SPF)
    Bit depth : 16 bits
    Compression mode : Lossy
    Stream size : 285 MiB (11%)
    Alignment : Split accross interleaves
    Interleave, duration : 40 ms (1.00 video frame)
    Interleave, preload duratio : 500 ms
    Service kind : Complete Main
    Audio #3
    ID : 3
    Format : AC-3
    Format/Info : Audio Coding 3
    Commercial name : Dolby Digital
    Codec ID : 2000
    Duration : 1 h 28 min
    Bit rate mode : Constant
    Bit rate : 448 kb/s
    Channel(s) : 6 channels
    Channel layout : L R C LFE Ls Rs
    Sampling rate : 48.0 kHz
    Frame rate : 31.250 FPS (1536 SPF)
    Bit depth : 16 bits
    Compression mode : Lossy
    Stream size : 285 MiB (11%)
    Alignment : Split accross interleaves
    Interleave, duration : 40 ms (1.00 video frame)
    Interleave, preload duratio : 500 ms
    Service kind : Complete Main
    Audio #4
    ID : 4
    Format : AC-3
    Format/Info : Audio Coding 3
    Commercial name : Dolby Digital
    Codec ID : 2000
    Duration : 1 h 28 min
    Bit rate mode : Constant
    Bit rate : 448 kb/s
    Channel(s) : 6 channels
    Channel layout : L R C LFE Ls Rs
    Sampling rate : 48.0 kHz
    Frame rate : 31.250 FPS (1536 SPF)
    Bit depth : 16 bits
    Compression mode : Lossy
    Stream size : 285 MiB (11%)
    Alignment : Split accross interleaves
    Interleave, duration : 40 ms (1.00 video frame)
    Interleave, preload duratio : 500 ms
    Service kind : Complete Main
    Audio #5
    ID : 5
    Format : AC-3
    Format/Info : Audio Coding 3
    Commercial name : Dolby Digital
    Codec ID : 2000
    Duration : 1 h 28 min
    Bit rate mode : Constant
    Bit rate : 448 kb/s
    Channel(s) : 6 channels
    Channel layout : L R C LFE Ls Rs
    Sampling rate : 48.0 kHz
    Frame rate : 31.250 FPS (1536 SPF)
    Bit depth : 16 bits
    Compression mode : Lossy
    Stream size : 285 MiB (11%)
    Alignment : Split accross interleaves
    Interleave, duration : 40 ms (1.00 video frame)
    Interleave, preload duratio : 500 ms
    Service kind : Complete Main
    Скриншоты для ознакомления


    Все одноименные релизы в Клубе
    Время раздачи: 24/7 (до появления первых 3-5 скачавших)

    Онлайн видео Дракула



    Дракула / Dracula (2020) WEB-DLRip (сезон 1, серии 1-3 из 3) Невафильм, NewStudio, Jaskier, AlexFilm торрент скачать бесплатно
    Рейтинг →
     (голосов: 1, оценка 5/5, голосовать можно 1 раз )

    Другие торренты по теме:

  • Дракула / Dracula Untold (2014) WEBRip [1080p] [Трейлер]
  • Дракула / Dracula Untold (2014) WEBRip [H.264 / 720p-LQ] [Трейлер]
  • Дракула / Dracula Untold (2014) CamRip [EN]
  • Дракула / Dracula Untold (2014) CamRip скачать через торрент бесплатно
  • Дракула / Dracula Untold (2014) WEBRip [Звук с CAMRip] скачать через торрент бесплатно
  • Дракула / Dracula Untold (2014) WEBRip [H.264 / 720p-LQ] [Звук с CAMRip] скачать через торрент бесплатно
  • Дракула / Dracula Untold (2014) WEBRip [Line] скачать через торрент бесплатно
  • Дракула / Dracula Untold (2014) WEBRip [H.264 / 720p-LQ] [Line] скачать через торрент бесплатно


    • Комментарии (0):

      Информация

      Информация

        Посетители, находящиеся в группе Гости, не могут оставлять комментарии в данной новости.

        ↓ Меню




        ↓ Опрос

        Вы добавили сайт в закладки?
        Да
        Нет


        Популярное