.
Авторизация | Регистрация
bitok.xyz
Торрент скачать бесплатно Фильмы торрент скачать Идеальный пациент / The Perfect Patient (2019) WEB-DL [H.264 / 720p-LQ] торрент скачать бесплатно


    Идеальный пациент / The Perfect Patient (2019) WEB-DL [H.264 / 720p-LQ] торрент скачать бесплатно

    Дата: 28-01-2020, 05:00 | .torrent скачали: 0

    Идеальный пациент / The Perfect Patient (2019) WEB-DL [H.264 / 720p-LQ]Производство: Швеция, Brain Academy, Film i Väst, Nordisk Film
    Жанр: Триллер
    Режиссер: Микаэль Хофстрём
    Продюсер: Хелена Даниэльссон, Стефан Барон, Пер Бувенг

    Актеры
    Йонас Карлссон, Давид Денсик, Альба Аугуст, Сюзанн Рейтер, Линда Ульвеус, Кристофер Вагелин, Това Магнуссон-Норлинг, Даг Малмберг, Магнус Роосманн, Бьёрн Бенгтссон

    Описание
    Его изощренному уму позавидовал бы сам Ганнибал Лектер. Десятки жертв по всей стране и никаких улик. Единственный свидетель — он сам, сдавшийся на милость правосудия. Что это, муки совести или очередной ход в его чудовищной игре? В клетку со зверем заходит журналист.

    Возраст: 18+ (зрителям, достигшим 18 лет. запрещено для детей)
    Рейтинг MPAA:
    Дата мировой премьеры: 20 сентября 2019
    Дата российской премьеры: 14 ноября 2019, Capella Film
    Цифровой релиз: 27 января 2020, Capella Film
    Релиз от: TeamHD
    Продолжительность: 02: 11: 25
    Качество видео: WEB-DL 720p
    Перевод: Дублированный(iTunes)
    Субтитры: Нет
    Видео: AVC/H.264, 1280x480, 4053 Kbps, 24.000 fps
    Аудио : AC-3, 6 ch, 384 Kbps | Русский
    General
    Unique ID : 332864211501300451143879231951596232078 (0xFA6B50B335A244540D6F9AFC5ECD1D8E)
    Complete name : /Volumes/Promise 2/The.Perfect.Patient.WEB-DL.720p.TeamHD.mkv
    Format : Matroska
    Format version : Version 4
    File size : 4.07 GiB
    Duration : 2h 11mn
    Overall bit rate : 4 439 Kbps
    Movie name : The Perfect Patient WEB-DL 720p
    Encoded date : UTC 2020-01-27 16: 42: 56
    Writing application : mkvmerge v43.0.0 (\'The Quartermaster\') 64-bit
    Writing library : libebml v1.3.10 + libmatroska v1.5.2
    Video
    ID : 1
    Format : AVC
    Format/Info : Advanced Video Codec
    Format profile : Main@L3.1
    Format settings : 2 Ref Frames
    Format settings, CABAC : No
    Format settings, ReFrames : 2 frames
    Codec ID : V_MPEG4/ISO/AVC
    Duration : 2h 11mn
    Bit rate : 4 053 Kbps
    Width : 1 280 pixels
    Height : 480 pixels
    Display aspect ratio : 2.667
    Frame rate mode : Constant
    Frame rate : 24.000 fps
    Color space : YUV
    Chroma subsampling : 4: 2: 0
    Bit depth : 8 bits
    Scan type : Progressive
    Bits/(Pixel*Frame) : 0.275
    Stream size : 3.72 GiB (91%)
    Language : English
    Default : Yes
    Forced : No
    Color range : Limited
    Color primaries : BT.709
    Transfer characteristics : BT.709
    Matrix coefficients : BT.709
    Audio
    ID : 2
    Format : AC-3
    Format/Info : Audio Coding 3
    Commercial name : Dolby Digital
    Codec ID : A_AC3
    Duration : 2h 11mn
    Bit rate mode : Constant
    Bit rate : 384 Kbps
    Channel(s) : 6 channels
    Channel layout : L R C LFE Ls Rs
    Sampling rate : 48.0 KHz
    Frame rate : 31.250 fps (1536 SPF)
    Compression mode : Lossy
    Stream size : 361 MiB (9%)
    Title : Russian DUB iTunes
    Language : Russian
    Service kind : Complete Main
    Default : Yes
    Forced : No
    Menu
    00: 00: 00.000 : en: Глава 1
    00: 03: 56.041 : en: Глава 2
    00: 09: 23.124 : en: Глава 3
    00: 18: 19.249 : en: Глава 4
    00: 27: 39.290 : en: Глава 5
    00: 36: 00.831 : en: Глава 6
    00: 45: 05.456 : en: Глава 7
    00: 51: 03.331 : en: Глава 8
    00: 57: 57.122 : en: Глава 9
    01: 03: 24.580 : en: Глава 10
    01: 08: 52.705 : en: Глава 11
    01: 21: 23.496 : en: Глава 12
    01: 27: 46.746 : en: Глава 13
    01: 37: 29.287 : en: Глава 14
    01: 41: 41.870 : en: Глава 15
    01: 50: 58.203 : en: Глава 16
    01: 55: 22.786 : en: Глава 17

    Скриншоты для ознакомления



    Все одноименные релизы в Клубе
    Время раздачи: 24/7 (круглосуточно) (до появления первых 3-5 скачавших)

    Онлайн видео Идеальный пациент



    Идеальный пациент / The Perfect Patient (2019) WEB-DL [H.264 / 720p-LQ] торрент скачать бесплатно
    Рейтинг →
     (голосов: 1, оценка 3/5, голосовать можно 1 раз )

    Другие торренты по теме:

  • Идеальный пациент / The Perfect Patient (2019) WEB-DL [H.264 / 1080p-LQ]
  • Идеальный пациент / The Perfect Patient (2019) WEB-DL [1080p] ATV
  • Идеальный пациент / The Perfect Patient (2019) WEB-DL [720p] ATV
  • Идеальный пациент / The Perfect Patient (2019) WEB-DLRip
  • Идеальный пациент / The Perfect Patient (2019) WEB-DLRip [H.265] [10-bit]
  • Идеальный пациент / The Perfect Patient (2019) WEB-DLRip [H.264 / 720p-LQ] [10 bit] [DUB]
  • Идеальный пациент / The Perfect Patient (2019) BDRip [H.264 / 1080p]
  • Идеальный пациент / The Perfect Patient (2019) BDRemux [H.264 / 1080p]


    • Комментарии (0):

      Информация

      Информация

        Посетители, находящиеся в группе Гости, не могут оставлять комментарии в данной новости.

        ↓ Меню




        ↓ Опрос

        Вы добавили сайт в закладки?
        Да
        Нет


        Популярное