.
Авторизация | Регистрация
bitok.xyz
Торрент скачать бесплатно Фильмы торрент скачать Игры с огнём / Playing with Fire (2019) BDRip [H.264 / 1080p-LQ] [MVO, AD] торрент скачать бесплатно


    Игры с огнём / Playing with Fire (2019) BDRip [H.264 / 1080p-LQ] [MVO, AD] торрент скачать бесплатно

    Дата: 28-01-2020, 05:00 | .torrent скачали: 1

    Игры с огнём / Playing with Fire (2019) BDRip [H.264 / 1080p-LQ] [MVO, AD]Производство: США, Broken Road Productions, Nickelodeon Movies, Paramount Player
    Жанр: комедия, семейный
    Режиссер: Энди Фикмен

    Актеры
    Джон Сина, Кигэн-Майкл Ки, Брианна Хилдебранд, Джон Легуизамо, Кристиан Конвери, Финли Роуз Слэйтер, Джуди Грир, Деннис Хейсбёрт, Дэниэл Кадмор, Томми Юроуп

    Описание

    Когда суровый начальник пожарной части Джейк Карсон и его элитная команда опытных пожарных спасают троих детей, оказавшихся на пути наступающего лесного пожара, они быстро понимают, что никакие тренировки не могли подготовить их к самой сложной работе - стать няньками. Не имея возможности найти родителей детей, они сталкиваются с тем, что их жизни, работа и родное пожарное депо стремительно переворачиваются с ног на голову, ведь дети - как и пожары - дикие и непредсказуемые.

    Возраст: 6+ (зрителям, достигшим 6 лет)
    Рейтинг MPAA: PG (рекомендуется присутствие родителей)
    Дата мировой премьеры: 7 ноября 2019
    Дата российской премьеры: 6 февраля 2020
    Релиз от: LakeFilms
    Продолжительность: 01: 36: 33
    Качество видео: BDRip
    Перевод: Двуголосый любительский (LakeFilms)
    Субтитры: отсутствуют
    Реклама: присутствуют видео, аудио, текстовые вставки рекламы
    Видео: AVC/H.264, 1920x1080, ~6949 kbps
    Аудио: AAC, 2 ch, 317 kbps
    General
    Unique ID : 310830000619179424653636428979559265442 (0xE9D7AE3A885ECED5844609FC3178F4A2)
    Complete name : E: Playing.with.Fire.2019.1080p.BDRip.LakeFilms.mkv
    Format : Matroska
    Format version : Version 4/Version 2
    File size : 4.90 GiB
    Duration : 1 h 36 min
    Overall bit rate : 7 269 kb/s
    Encoded date : UTC 2020-01-26 14: 17: 35
    Writing application : mkvmerge v40.0.0 (\'Old Town Road + Pony\') 64-bit
    Writing library : libebml v1.3.9 + libmatroska v1.5.2
    Video
    ID : 1
    Format : AVC
    Format/Info : Advanced Video Codec
    Format profile : Main@L4.1
    Format settings : CABAC/4 Ref Frames
    Format settings, CABAC : Yes
    Format settings, RefFrames : 4 frames
    Codec ID : V_MPEG4/ISO/AVC
    Duration : 1 h 36 min
    Bit rate : 6 949 kb/s
    Width : 1 920 pixels
    Height : 1 080 pixels
    Display aspect ratio : 16: 9
    Frame rate mode : Constant
    Frame rate : 23.976 (24000/1001) FPS
    Color space : YUV
    Chroma subsampling : 4: 2: 0
    Bit depth : 8 bits
    Scan type : Progressive
    Bits/(Pixel*Frame) : 0.140
    Stream size : 4.69 GiB (96%)
    Language : English
    Default : Yes
    Forced : No
    Color range : Limited
    Color primaries : BT.709
    Transfer characteristics : BT.709
    Matrix coefficients : BT.709
    Audio
    ID : 2
    Format : AAC
    Format/Info : Advanced Audio Codec
    Format profile : LC
    Codec ID : A_AAC-2
    Duration : 1 h 36 min
    Bit rate : 317 kb/s
    Channel(s) : 2 channels
    Channel positions : Front: L R
    Sampling rate : 48.0 kHz
    Frame rate : 46.875 FPS (1024 SPF)
    Compression mode : Lossy
    Stream size : 219 MiB (4%)
    Language : English
    Default : Yes
    Forced : No

    Скриншоты для ознакомления



    Все одноименные релизы в Клубе
    Время раздачи: 24/7 (до появления первых 3-5 скачавших) (до появления первых 3-5 скачавших)

    Онлайн видео Игры с огнём



    Игры с огнём / Playing with Fire (2019) BDRip [H.264 / 1080p-LQ] [MVO, AD] торрент скачать бесплатно
    Рейтинг →
     (голосов: 1, оценка 3/5, голосовать можно 1 раз )

    Другие торренты по теме:

  • Правила игры / Холостяцкие игры / Bachelor Games (2016) HDRip [VO]
  • Е.М. Минскин | От игры к знаниям: Развивающие и познавательные игры младших школьников (1982) [DJVU]
  • Эрик Берн | Игры, в которые играют люди. Люди, которые играют в игры (сборник) (2017) [FB2]
  • Голодные игры: Сойка-пересмешница. Часть I / The Hunger Games: Mockingjay - Part 1 (2014) WEBRip [1080p] [Трейлер]
  • James Newton Howard - Голодные игры / The Hunger Games (Complete Motion Picture Score) (2012) [MP3|320 кб / с]<Soundtrack>
  • James Newton Howard - Голодные игры: И вспыхнет пламя / The Hunger Games: Catching Fire (Original Motion Picture Score) (2013) [MP3|320 кб / с]<Soundtrack>
  • No Game No Life | Игра на выживание | Нет игры - нет жизни [2014, TV, 8 из 12 эп.] BDrip 1080p raw скачать через торрент бесплатно
  • Игры в подкидного (2001) SATRip [1-14 серии из 14] скачать через торрент бесплатно


    • Комментарии (0):

      Информация

      Информация

        Посетители, находящиеся в группе Гости, не могут оставлять комментарии в данной новости.

        ↓ Меню




        ↓ Опрос

        Вы добавили сайт в закладки?
        Да
        Нет


        Популярное