.
Авторизация | Регистрация
bitok.xyz
Торрент скачать бесплатно Фильмы торрент скачать Правда и справедливость / Tode ja oigus (2019) DVDRip [MVO, AD] торрент скачать бесплатно


    Правда и справедливость / Tode ja oigus (2019) DVDRip [MVO, AD] торрент скачать бесплатно

    Дата: 28-01-2020, 05:00 | .torrent скачали: 0

    Правда и справедливость / Tode ja oigus (2019) DVDRip [MVO, AD]Производство: Эстония, Allfilm
    Жанр: Драма
    Режиссер: Танел Тоом

    Актеры
    Приит Лоог, Эстер Кунту, Приит Войгемаст, Майкен Шмидт, Симеони Сунджа, Индрек Саммул, Марика Ваарик, Maria Koff, Отт Райдметс, Loora-Eliise Kaarelson

    Описание

    События фильма разворачиваются в Эстонии в 1872 году. Супружеская пара фермеров приобретает заболоченную ферму Варгамяэ, чтобы превратить ее в плодородную и прибыльную. Однако их усилия и тяжелая работа не приводят к успеху, против них природа и постоянные конфликты с соседом. Устав от постоянных неудач и страданий, фермер пытается найти справедливость у Бога и у людей.

    Дата мировой премьеры: 22 февраля 2019
    Релиз от: LakeFilms
    Продолжительность: 02: 45: 50
    Качество видео: DVDRip
    Перевод: Двуголосый любительский (LakeFilms)
    Субтитры: отсутствуют
    Реклама: присутствуют видео, аудио, текстовые вставки рекламы
    Видео: Xvid, 720x304, ~1398 Kbps
    Аудио: AC3, 2 ch, 384 kbps
    General
    Complete name : E: ЛАКЕTõde.ja.õigus.2019.DVDRip.LakeFilms.avi
    Format : AVI
    Format/Info : Audio Video Interleave
    Format profile : OpenDML
    File size : 2.08 GiB
    Duration : 2 h 45 min
    Overall bit rate : 1 793 kb/s
    Writing application : Lavf58.29.100
    Video
    ID : 0
    Format : MPEG-4 Visual
    Format profile : Advanced Simple@L5
    Format settings : BVOP1
    Format settings, BVOP : 1
    Format settings, QPel : No
    Format settings, GMC : No warppoints
    Format settings, Matrix : Default (H.263)
    Codec ID : XVID
    Codec ID/Hint : XviD
    Duration : 2 h 45 min
    Bit rate : 1 398 kb/s
    Width : 720 pixels
    Height : 304 pixels
    Display aspect ratio : 2.35: 1
    Frame rate : 25.000 FPS
    Color space : YUV
    Chroma subsampling : 4: 2: 0
    Bit depth : 8 bits
    Scan type : Progressive
    Compression mode : Lossy
    Bits/(Pixel*Frame) : 0.256
    Stream size : 1.62 GiB (78%)
    Title : Mainconcept Video Media Handler
    Writing library : XviD 67
    Audio
    ID : 1
    Format : AC-3
    Format/Info : Audio Coding 3
    Codec ID : 2000
    Duration : 2 h 45 min
    Bit rate mode : Constant
    Bit rate : 384 kb/s
    Channel(s) : 2 channels
    Channel positions : Front: L R
    Sampling rate : 48.0 kHz
    Frame rate : 31.250 FPS (1536 SPF)
    Bit depth : 16 bits
    Compression mode : Lossy
    Stream size : 456 MiB (21%)
    Alignment : Aligned on interleaves
    Interleave, duration : 32 ms (0.80 video frame)
    Title : #Mainconcept MP4 Sound Media Handler
    Service kind : Complete Main

    Скриншоты для ознакомления



    Все одноименные релизы в Клубе
    Время раздачи: 24/7 (до появления первых 3-5 скачавших) (до появления первых 3-5 скачавших)

    Онлайн видео Правда и справедливость



    Правда и справедливость / Tode ja oigus (2019) DVDRip [MVO, AD] торрент скачать бесплатно
    Рейтинг →
     (голосов: 1, оценка 4/5, голосовать можно 1 раз )

    Другие торренты по теме:

  • Правда и справедливость / Tode ja oigus (2019) HDRip [MVO] [AD]


    • Комментарии (0):

      Информация

      Информация

        Посетители, находящиеся в группе Гости, не могут оставлять комментарии в данной новости.

        ↓ Меню




        ↓ Опрос

        Вы добавили сайт в закладки?
        Да
        Нет


        Популярное