.
Авторизация | Регистрация
bitok.xyz
Торрент скачать бесплатно Фильмы торрент скачать Стриптизёрши / Hustlers (2019) HDRip [H.265] [10-bit] торрент скачать бесплатно


    Стриптизёрши / Hustlers (2019) HDRip [H.265] [10-bit] торрент скачать бесплатно

    Дата: 28-01-2020, 05:00 | .torrent скачали: 0

    Стриптизёрши / Hustlers (2019) HDRip [H.265] [10-bit]Производство: США/Annapurna Pictures, Gloria Sanchez Productions, Nuyorican Productions, STX Films
    Жанр: Комедия, криминал, драма
    Режиссер: Лорин Скафария

    Актеры
    Констанс Ву, Дженнифер Лопес, Джулия Стайлз, Кеке Палмер, Лили Рейнхарт, Карди Би, Лиззо, Мерседес Рул, Мадлен Брюэр, Метте Таули

    Описание

    Они — яркие, сексуальные и очень амбициозные. Они — танцовщицы элитного стриптиз-клуба, клиенты которого — известные финансисты с Уолл-Стрит. Но когда банковский кризис в одночасье превращает накопления девушек в пыль, подруги по несчастью жаждут отомстить. Они разрабатывают дерзкий план как вернуть потерянные деньги, чтобы снова вести роскошную гламурную жизнь, и отплатить биржевым гениям, оставив их без гроша.

    Возраст: 18+ (зрителям, достигшим 18 лет. запрещено для детей)
    Рейтинг MPAA: R (лицам до 17 лет обязательно присутствие взрослого)
    Дата мировой премьеры: 7 сентября 2019
    Дата российской премьеры: 12 сентября 2019
    Продолжительность: 01: 50: 06
    Качество видео: HDRip
    Перевод: Дублированный (iTunes)
    Субтитры: Aнглийские (SDH)
    Видео: HEVC/H.265, 1024x428, 1956 Kbps
    Аудио 1 : AC3, 2 ch, 160 Kbps | Русский
    Аудио 2 : AC3, 2 ch, 160 Kbps | АнглийскийОбщее
    Уникальный идентификатор : 255051524259724174885366736050352208985 (0xBFE12304E36E0A9700FF7D20B106BC59)
    Полное имя : Hustlers.2019.HDRip.HEVC.mkv
    Формат : Matroska
    Версия формата : Version 4/Version 2
    Размер файла : 1, 79 Гбайт
    Продолжительность : 1 ч. 50 м.
    Общий поток : 2322 Кбит/сек
    Название фильма : Hustlers 2019 from селезень
    Программа кодирования : XviD4PSP 8.0.96
    Библиотека кодирования : Lavf58.29.100
    ErrorDetectionType : Per level 1
    ENCODING_INFO : MATROSKA, WEBM MKV Пользовательский 2
    Видео
    Идентификатор : 1
    Формат : HEVC
    Формат/Информация : High Efficiency Video Coding
    Профиль формата : Main10@L4.1@High
    Идентификатор кодека : V_MPEGH/ISO/HEVC
    Продолжительность : 1 ч. 50 м.
    Битрейт : 1956 Кбит/сек
    Ширина : 1024 пикселя
    Высота : 428 пикселей
    Соотношение сторон : 2, 40: 1
    Режим частоты кадров : Постоянный
    Частота кадров : 23, 976 (24000/1001) кадра/сек
    Цветовое пространство : YUV
    Субдискретизация насыщенности : 4: 2: 0
    Битовая глубина : 10 бит
    Бит/(Пиксели*Кадры) : 0.186
    Размер потока : 1, 50 Гбайт (84%)
    Заголовок : CHD
    Язык : English
    Default : Да
    Forced : Нет
    Цветовой диапазон : Full
    ENCODING_INFO : H264 HEVC NVENC VBR 2000kbps HQ
    Аудио #1
    Идентификатор : 2
    Формат : AC-3
    Формат/Информация : Audio Coding 3
    Параметр Endianness формата : Big
    Идентификатор кодека : A_AC3
    Продолжительность : 1 ч. 50 м.
    Вид битрейта : Постоянный
    Битрейт : 160 Кбит/сек
    Каналы : 2 канала
    Расположение каналов : Front: L R
    Частота : 48, 0 КГц
    Частота кадров : 31, 250 кадров/сек (1536 SPF)
    Битовая глубина : 16 бит
    Метод сжатия : С потерями
    Размер потока : 126 Мбайт (7%)
    Заголовок : iTunes
    Язык : Russian
    ServiceKind/String : Complete Main
    Default : Да
    Forced : Нет
    ENCODING_INFO : AC3 AC3 CBR 160kbps
    Аудио #2
    Идентификатор : 3
    Формат : AC-3
    Формат/Информация : Audio Coding 3
    Параметр Endianness формата : Big
    Идентификатор кодека : A_AC3
    Продолжительность : 1 ч. 50 м.
    Вид битрейта : Постоянный
    Битрейт : 160 Кбит/сек
    Каналы : 2 канала
    Расположение каналов : Front: L R
    Частота : 48, 0 КГц
    Частота кадров : 31, 250 кадров/сек (1536 SPF)
    Битовая глубина : 16 бит
    Метод сжатия : С потерями
    Размер потока : 126 Мбайт (7%)
    Заголовок : Original
    Язык : English
    ServiceKind/String : Complete Main
    Default : Нет
    Forced : Нет
    ENCODING_INFO : AC3 AC3 CBR 160kbps
    Текст
    Идентификатор : 4
    Формат : UTF-8
    Идентификатор кодека : S_TEXT/UTF8
    Идентификатор кодека/Информация : UTF-8 Plain Text
    Заголовок : SDH
    Язык : English
    Default : Да
    Forced : Нет
    ENCODING_INFO : SUBRIP COPY Быстрое
    Меню
    00: 00: 00.000 : : 00: 00: 00.000
    00: 05: 09.017 : : 00: 05: 09.017
    00: 11: 19.345 : : 00: 11: 19.345
    00: 15: 04.821 : : 00: 15: 04.821
    00: 21: 22.823 : : 00: 21: 22.823
    00: 24: 47.736 : : 00: 24: 47.736
    00: 30: 46.178 : : 00: 30: 46.178
    00: 35: 16.697 : : 00: 35: 16.698
    00: 40: 44.067 : : 00: 40: 44.067
    00: 45: 31.979 : : 00: 45: 31.979
    00: 52: 58.550 : : 00: 52: 58.550
    01: 00: 36.758 : : 01: 00: 36.758
    01: 04: 27.030 : : 01: 04: 27.030
    01: 10: 08.287 : : 01: 10: 08.287
    01: 15: 02.581 : : 01: 15: 02.581
    01: 20: 53.724 : : 01: 20: 53.724
    01: 27: 47.762 : : 01: 27: 47.762
    01: 32: 23.329 : : 01: 32: 23.329
    01: 37: 27.091 : : 01: 37: 27.091
    01: 42: 29.977 : : 01: 42: 29.977

    Скриншоты для ознакомления



    Все одноименные релизы в Клубе
    Время раздачи: 19 - 23 (до появления первых 3-5 скачавших)

    Онлайн видео Стриптизёрши



    Стриптизёрши / Hustlers (2019) HDRip [H.265] [10-bit] торрент скачать бесплатно
    Рейтинг →
     (голосов: 1, оценка 5/5, голосовать можно 1 раз )

    Другие торренты по теме:

  • Стриптизёрши / Hustlers (2019) WEB-DLRip
  • Стриптизёрши / Hustlers (2019) WEB-DL [H.264 / 1080p-LQ]
  • Стриптизёрши / Hustlers (2019) WEB-DL [H.264 / 1080p]
  • Стриптизёрши / Hustlers (2019) WEB-DL [720p] ATV
  • Стриптизёрши / Hustlers (2019) WEB-DL [1080p] ATV
  • Стриптизёрши / Hustlers (2019) WEB-DL [H.264 / 720p]
  • Стриптизёрши / Hustlers (2019) BDRip [H.264 / 1080p]
  • Стриптизёрши / Hustlers (2019) BDRemux [H.264 / 1080p]


    • Комментарии (0):

      Информация

      Информация

        Посетители, находящиеся в группе Гости, не могут оставлять комментарии в данной новости.

        ↓ Меню




        ↓ Опрос

        Вы добавили сайт в закладки?
        Да
        Нет


        Популярное