.
Авторизация | Регистрация
bitok.xyz
Торрент скачать бесплатно Фильмы торрент скачать Брачная история / Marriage Story (2019) WEB-DLRip [H.265] [10-bit] торрент скачать бесплатно


    Брачная история / Marriage Story (2019) WEB-DLRip [H.265] [10-bit] торрент скачать бесплатно

    Дата: 28-01-2020, 05:00 | .torrent скачали: 3

    Брачная история / Marriage Story (2019) WEB-DLRip [H.265] [10-bit]Производство: США/Heyday Films, Netflix
    Жанр: Драма, мелодрама, комедия
    Режиссер: Ноа Баумбак

    Актеры
    Скарлетт Йоханссон, Адам Драйвер, Мерритт Уивер, Лора Дерн, Рэй Лиотта, Уоллес Шоун, Джули Хэгерти, Алан Алда, Марк О’Брайэн, Кайл Борнхаймер

    Описание

    Супруги — нью-йоркский театральный режиссёр Чарли и актриса его театра Николь — находятся в процессе развода. Чарли всё устраивало в их браке, но Николь считает, что потеряла себя, и, забрав сына, переезжает к маме в Лос-Анджелес. Там ей уже предложили роль в сериале и посоветовали высококлассную адвокатшу по разводам. Теперь Чарли тоже придётся искать адвоката, а также разрываться между Западным и Восточным побережьями, чтобы продолжать работать и проводить время с сыном.

    Рейтинг MPAA: R (лицам до 17 лет обязательно присутствие взрослого)
    Дата мировой премьеры: 29 августа 2019
    Продолжительность: 02: 16: 58
    Качество видео: WEB-DLRip
    Перевод: Профессиональный многоголосый (Jaskier)
    Субтитры: Русские, английские
    Видео: HEVC/H.265, 960x576, 1950 Kbps
    Аудио 1 : AC3, 2 ch, 160 Kbps | Русский
    Аудио 2 : AC3, 2 ch, 160 Kbps | АнглийскийОбщее
    Уникальный идентификатор : 339317411834399555117406441102159228738 (0xFF46280A82CE9601C871B58D10E5AF42)
    Полное имя : Marriage.Story.2019.WEB-DLRip.HEVC.mkv
    Формат : Matroska
    Версия формата : Version 4/Version 2
    Размер файла : 2, 22 Гбайт
    Продолжительность : 2 ч. 16 м.
    Общий поток : 2316 Кбит/сек
    Название фильма : Marriage.Story.2019.WEB-DL.1080p.Jaskier.MegaPeer.(qqss44)
    Программа кодирования : XviD4PSP 8.0.96
    Библиотека кодирования : Lavf58.29.100
    ErrorDetectionType : Per level 1
    ENCODING_INFO : MATROSKA, WEBM MKV Пользовательский 2
    Видео
    Идентификатор : 1
    Формат : HEVC
    Формат/Информация : High Efficiency Video Coding
    Профиль формата : Main10@L4.1@High
    Идентификатор кодека : V_MPEGH/ISO/HEVC
    Продолжительность : 2 ч. 16 м.
    Битрейт : 1950 Кбит/сек
    Ширина : 960 пикселей
    Высота : 576 пикселей
    Соотношение сторон : 5: 3
    Режим частоты кадров : Постоянный
    Частота кадров : 24, 000 кадра/сек
    Цветовое пространство : YUV
    Субдискретизация насыщенности : 4: 2: 0
    Битовая глубина : 10 бит
    Бит/(Пиксели*Кадры) : 0.147
    Размер потока : 1, 87 Гбайт (84%)
    Язык : English
    Default : Да
    Forced : Нет
    Цветовой диапазон : Full
    ENCODING_INFO : H264 HEVC NVENC VBR 2000kbps HQ
    Аудио #1
    Идентификатор : 2
    Формат : AC-3
    Формат/Информация : Audio Coding 3
    Параметр Endianness формата : Big
    Идентификатор кодека : A_AC3
    Продолжительность : 2 ч. 16 м.
    Вид битрейта : Постоянный
    Битрейт : 160 Кбит/сек
    Каналы : 2 канала
    Расположение каналов : Front: L R
    Частота : 48, 0 КГц
    Частота кадров : 31, 250 кадров/сек (1536 SPF)
    Битовая глубина : 16 бит
    Метод сжатия : С потерями
    Размер потока : 157 Мбайт (7%)
    Язык : Russian
    ServiceKind/String : Complete Main
    Default : Да
    Forced : Нет
    ENCODING_INFO : AC3 AC3 CBR 160kbps
    Аудио #2
    Идентификатор : 3
    Формат : AC-3
    Формат/Информация : Audio Coding 3
    Параметр Endianness формата : Big
    Идентификатор кодека : A_AC3
    Продолжительность : 2 ч. 16 м.
    Вид битрейта : Постоянный
    Битрейт : 160 Кбит/сек
    Каналы : 2 канала
    Расположение каналов : Front: L R
    Частота : 48, 0 КГц
    Частота кадров : 31, 250 кадров/сек (1536 SPF)
    Битовая глубина : 16 бит
    Метод сжатия : С потерями
    Размер потока : 157 Мбайт (7%)
    Язык : English
    ServiceKind/String : Complete Main
    Default : Нет
    Forced : Нет
    ENCODING_INFO : AC3 AC3 CBR 160kbps
    Текст #1
    Идентификатор : 4
    Формат : UTF-8
    Идентификатор кодека : S_TEXT/UTF8
    Идентификатор кодека/Информация : UTF-8 Plain Text
    Язык : Russian
    Default : Да
    Forced : Нет
    ENCODING_INFO : SUBRIP COPY Быстрое
    Текст #2
    Идентификатор : 5
    Формат : UTF-8
    Идентификатор кодека : S_TEXT/UTF8
    Идентификатор кодека/Информация : UTF-8 Plain Text
    Язык : English
    Default : Нет
    Forced : Нет
    ENCODING_INFO : SUBRIP COPY Быстрое

    Скриншоты для ознакомления



    Все одноименные релизы в Клубе
    Время раздачи: 19 - 23 (до появления первых 3-5 скачавших)

    Онлайн видео Брачная история



    Брачная история / Marriage Story (2019) WEB-DLRip [H.265] [10-bit] торрент скачать бесплатно
    Рейтинг →
     (голосов: 1, оценка 3/5, голосовать можно 1 раз )

    Другие торренты по теме:

  • Брачная история / Marriage Story (2019) WEBRip [MVO] [AD]
  • Брачная история / Marriage Story (2019) WEBRip [H.264 / 1080p-LQ] [MVO] [AD]
  • Брачная история / Marriage Story (2019) WEB-DL [H.264 / 1080p-LQ] [MVO] [PR]
  • Брачная история / Marriage Story (2019) WEBRip [H.264 / 720p-LQ]
  • Брачная история / Marriage Story (2019) WEB-DL [H.264 / 1080p-LQ] [MVO]
  • Randy Newman - Marriage Story / Брачная история (Original Music from the Netflix Film) (2019) [FLAC|Lossless|WEB-DL|tracks]<Soundtrack>
  • Randy Newman - Marriage Story / Брачная история (Original Music from the Netflix Film) (2019) [MP3|320 кб / с]<Soundtrack>


    • Комментарии (0):

      Информация

      Информация

        Посетители, находящиеся в группе Гости, не могут оставлять комментарии в данной новости.

        ↓ Меню




        ↓ Опрос

        Вы добавили сайт в закладки?
        Да
        Нет


        Популярное