.
Авторизация | Регистрация
bitok.xyz
Торрент скачать бесплатно Фильмы торрент скачать Ирландец / The Irishman (2019) WEB-DLRip [H.265] [10-bit] торрент скачать бесплатно


    Ирландец / The Irishman (2019) WEB-DLRip [H.265] [10-bit] торрент скачать бесплатно

    Дата: 28-01-2020, 05:00 | .torrent скачали: 2

    Ирландец / The Irishman (2019) WEB-DLRip [H.265] [10-bit]Производство: США/Fabrica de Cine, STX Entertainment, Sikelia Productions, Tribeca Productions
    Жанр: Драма, криминал, биография
    Режиссер: Мартин Скорсезе

    Актеры
    Роберт Де Ниро, Анна Пакуин, Аль Пачино, Джо Пеши, Алекса Палладино, Джесси Племонс, Харви Кейтель, Бобби Каннавейл, Стивен Грэм, Джек Хьюстон

    Описание

    История о Фрэнке Ширэне по прозвищу Ирландец, которому приписывают убийство 25 гангстеров, включая самого Джимми Хоффу.

    Рейтинг MPAA: R (лицам до 17 лет обязательно присутствие взрослого)
    Дата мировой премьеры: 27 сентября 2019
    Продолжительность: 03: 29: 26
    Качество видео: WEB-DLRip
    Перевод: Дублированный (Пифагор)
    Субтитры: Русские (Forced, full), английские (Full)
    Видео: HEVC/H.265, 1024x552, 1886 Kbps
    Аудио 1 : AC3, 2 ch, 160 Kbps | Русский
    Аудио 2 : AC3, 2 ch, 160 Kbps | АнглийскийОбщее
    Уникальный идентификатор : 108968269431836590898468556057315983209 (0x51FA867AA13DF3C4D2D27BBA47353F69)
    Полное имя : The.Irishman.2019.WEB-DLRip.HEVC.mkv
    Формат : Matroska
    Версия формата : Version 4/Version 2
    Размер файла : 3, 29 Гбайт
    Продолжительность : 3 ч. 29 м.
    Общий поток : 2251 Кбит/сек
    Название фильма : The Irishman 2019
    Программа кодирования : XviD4PSP 8.0.91
    Библиотека кодирования : Lavf58.20.100
    ErrorDetectionType : Per level 1
    ENCODING_INFO : MATROSKA, WEBM MKV 1024 x 576
    Видео
    Идентификатор : 1
    Формат : HEVC
    Формат/Информация : High Efficiency Video Coding
    Профиль формата : Main10@L4.1@High
    Идентификатор кодека : V_MPEGH/ISO/HEVC
    Продолжительность : 3 ч. 29 м.
    Битрейт : 1886 Кбит/сек
    Ширина : 1024 пикселя
    Высота : 552 пикселя
    Соотношение сторон : 1, 85: 1
    Режим частоты кадров : Постоянный
    Частота кадров : 24, 000 кадра/сек
    Цветовое пространство : YUV
    Субдискретизация насыщенности : 4: 2: 0
    Битовая глубина : 10 бит
    Бит/(Пиксели*Кадры) : 0.139
    Размер потока : 2, 76 Гбайт (84%)
    Язык : English
    Default : Да
    Forced : Нет
    Цветовой диапазон : Limited
    Основные цвета : BT.709
    Характеристики трансфера : BT.709
    Коэффициенты матрицы : BT.709
    ENCODING_INFO : HEVC HEVC NVENC VBR 2000kbps HQ
    Аудио #1
    Идентификатор : 2
    Формат : AC-3
    Формат/Информация : Audio Coding 3
    Параметр Endianness формата : Big
    Идентификатор кодека : A_AC3
    Продолжительность : 3 ч. 29 м.
    Вид битрейта : Постоянный
    Битрейт : 160 Кбит/сек
    Каналы : 2 канала
    Расположение каналов : Front: L R
    Частота : 48, 0 КГц
    Частота кадров : 31, 250 кадров/сек (1536 SPF)
    Битовая глубина : 16 бит
    Метод сжатия : С потерями
    Размер потока : 240 Мбайт (7%)
    Заголовок : Dub
    Язык : Russian
    ServiceKind/String : Complete Main
    Default : Да
    Forced : Нет
    ENCODING_INFO : AC3 AC3 CBR 160kbps
    Аудио #2
    Идентификатор : 3
    Формат : AC-3
    Формат/Информация : Audio Coding 3
    Параметр Endianness формата : Big
    Идентификатор кодека : A_AC3
    Продолжительность : 3 ч. 29 м.
    Вид битрейта : Постоянный
    Битрейт : 160 Кбит/сек
    Каналы : 2 канала
    Расположение каналов : Front: L R
    Частота : 48, 0 КГц
    Частота кадров : 31, 250 кадров/сек (1536 SPF)
    Битовая глубина : 16 бит
    Метод сжатия : С потерями
    Размер потока : 240 Мбайт (7%)
    Заголовок : Original
    Язык : English
    ServiceKind/String : Complete Main
    Default : Нет
    Forced : Нет
    ENCODING_INFO : EAC3 AC3 CBR 160kbps
    Текст #1
    Идентификатор : 4
    Формат : UTF-8
    Идентификатор кодека : S_TEXT/UTF8
    Идентификатор кодека/Информация : UTF-8 Plain Text
    Заголовок : Forced
    Язык : Russian
    Default : Да
    Forced : Да
    ENCODING_INFO : SUBRIP COPY Быстрое
    Текст #2
    Идентификатор : 5
    Формат : UTF-8
    Идентификатор кодека : S_TEXT/UTF8
    Идентификатор кодека/Информация : UTF-8 Plain Text
    Заголовок : Full
    Язык : Russian
    Default : Нет
    Forced : Нет
    ENCODING_INFO : SUBRIP COPY Быстрое
    Текст #3
    Идентификатор : 6
    Формат : UTF-8
    Идентификатор кодека : S_TEXT/UTF8
    Идентификатор кодека/Информация : UTF-8 Plain Text
    Заголовок : Forced
    Язык : English
    Default : Нет
    Forced : Нет
    ENCODING_INFO : SUBRIP COPY Быстрое
    Текст #4
    Идентификатор : 7
    Формат : UTF-8
    Идентификатор кодека : S_TEXT/UTF8
    Идентификатор кодека/Информация : UTF-8 Plain Text
    Заголовок : Full
    Язык : English
    Default : Нет
    Forced : Нет
    ENCODING_INFO : SUBRIP COPY Быстрое

    Скриншоты для ознакомления



    Все одноименные релизы в Клубе
    Время раздачи: 19 - 23 (до появления первых 3-5 скачавших)

    Онлайн видео Ирландец



    Ирландец / The Irishman (2019) WEB-DLRip [H.265] [10-bit] торрент скачать бесплатно
    Рейтинг →
     (голосов: 1, оценка 5/5, голосовать можно 1 раз )

    Другие торренты по теме:

  • Ирландец / Kill the Irishman (2011) BDRemux [VC-1 / 1080p]
  • Ирландец / The Irishman (2019) WEBRip [H.265 / 1080p-LQ] [HDR, 10-bit]
  • Ирландец / The Irishman (2019) WEBRip
  • Ирландец / The Irishman (2019) WEBRip [H.264 / 720p-LQ]
  • Ирландец / The Irishman (2019) WEBRip [H.264 / 1080p-LQ]
  • Ирландец / The Irishman (2019) WEB-DL [1080p] ATV
  • Ирландец / The Irishman (2019) WEBRip [H.264 / 720p-LQ]
  • Ирландец / The Irishman (2019) WEB-DL [H.265 / 2160p] [4K, HDR, 10-bit]


    • Комментарии (0):

      Информация

      Информация

        Посетители, находящиеся в группе Гости, не могут оставлять комментарии в данной новости.

        ↓ Меню




        ↓ Опрос

        Вы добавили сайт в закладки?
        Да
        Нет


        Популярное