.
Авторизация | Регистрация
bitok.xyz
Торрент скачать бесплатно Фильмы торрент скачать Во всё тяжкое / The Professor (2018) HDRip [H.265] [10-bit] торрент скачать бесплатно


    Во всё тяжкое / The Professor (2018) HDRip [H.265] [10-bit] торрент скачать бесплатно

    Дата: 28-01-2020, 05:00 | .torrent скачали: 1

    Во всё тяжкое / The Professor (2018) HDRip [H.265] [10-bit]Производство: США/Global Road Entertainment, Automatik, Leeding Media
    Жанр: Драма, комедия
    Режиссер: Уэйн Робертс
    Продюсер: Уоррен Карр, Брайан Кэвэна-Джонс, Грег Шапиро

    Актеры
    Джонни Депп, Розмари ДеУитт, Одесса Янг, Дэнни Хьюстон, Зои Дойч, Девон Террелл, Рон Ливингстон, Линда Эмонд, Матрея Скаррвинер, Шиван Фэллон

    Описание
    Профессор колледжа решает жить на полную катушку после того, как ему ставят серьезный диагноз. Отныне все запреты сняты, а тайные желания могут наконец осуществиться!

    Рейтинг MPAA: R (лицам до 17 лет обязательно присутствие взрослого)
    Дата мировой премьеры: 5 октября 2018
    Дата российской премьеры: 26 сентября 2019, Экспонента
    Продолжительность: 01: 31: 37
    Качество видео: HDRip
    Перевод: Дублированный (iTunes)
    Субтитры: Русские, английские
    Видео: HEVC/H.265, 1024x554, 1985 Kbps
    Аудио 1 : AC3, 2 ch, 160 Kbps | Русский
    Аудио 2 : AC3, 2 ch, 160 Kbps | АнглийскийОбщее
    Уникальный идентификатор : 54062211135692599404367269956139652419 (0x28AC00CD0939517EDBBBFFE8A6909543)
    Полное имя : The.Professor.2018.HDRip.HEVC.mkv
    Формат : Matroska
    Версия формата : Version 4/Version 2
    Размер файла : 1, 51 Гбайт
    Продолжительность : 1 ч. 31 м.
    Общий поток : 2352 Кбит/сек
    Название фильма : The Professor 2018
    Программа кодирования : XviD4PSP 8.0.91
    Библиотека кодирования : Lavf58.20.100
    ErrorDetectionType : Per level 1
    ENCODING_INFO : MATROSKA, WEBM MKV 1024 x 576
    Видео
    Идентификатор : 1
    Формат : HEVC
    Формат/Информация : High Efficiency Video Coding
    Профиль формата : Main10@L4.1@High
    Идентификатор кодека : V_MPEGH/ISO/HEVC
    Продолжительность : 1 ч. 31 м.
    Битрейт : 1985 Кбит/сек
    Ширина : 1024 пикселя
    Высота : 554 пикселя
    Соотношение сторон : 1, 85: 1
    Режим частоты кадров : Постоянный
    Частота кадров : 23, 976 (24000/1001) кадра/сек
    Цветовое пространство : YUV
    Субдискретизация насыщенности : 4: 2: 0
    Битовая глубина : 10 бит
    Бит/(Пиксели*Кадры) : 0.146
    Размер потока : 1, 27 Гбайт (84%)
    Заголовок : Encoded by seleZen
    Язык : English
    Default : Да
    Forced : Нет
    Цветовой диапазон : Full
    ENCODING_INFO : H264 HEVC NVENC VBR 2000kbps HQ
    Аудио #1
    Идентификатор : 2
    Формат : AC-3
    Формат/Информация : Audio Coding 3
    Параметр Endianness формата : Big
    Идентификатор кодека : A_AC3
    Продолжительность : 1 ч. 31 м.
    Вид битрейта : Постоянный
    Битрейт : 160 Кбит/сек
    Каналы : 2 канала
    Расположение каналов : Front: L R
    Частота : 48, 0 КГц
    Частота кадров : 31, 250 кадров/сек (1536 SPF)
    Битовая глубина : 16 бит
    Метод сжатия : С потерями
    Размер потока : 105 Мбайт (7%)
    Заголовок : Dub iTunes
    Язык : Russian
    ServiceKind/String : Complete Main
    Default : Да
    Forced : Нет
    ENCODING_INFO : AC3 AC3 CBR 160kbps
    Аудио #2
    Идентификатор : 3
    Формат : AC-3
    Формат/Информация : Audio Coding 3
    Параметр Endianness формата : Big
    Идентификатор кодека : A_AC3
    Продолжительность : 1 ч. 31 м.
    Вид битрейта : Постоянный
    Битрейт : 160 Кбит/сек
    Каналы : 2 канала
    Расположение каналов : Front: L R
    Частота : 48, 0 КГц
    Частота кадров : 31, 250 кадров/сек (1536 SPF)
    Битовая глубина : 16 бит
    Метод сжатия : С потерями
    Размер потока : 105 Мбайт (7%)
    Заголовок : Original
    Язык : English
    ServiceKind/String : Complete Main
    Default : Нет
    Forced : Нет
    ENCODING_INFO : AC3 AC3 CBR 160kbps
    Текст #1
    Идентификатор : 4
    Формат : UTF-8
    Идентификатор кодека : S_TEXT/UTF8
    Идентификатор кодека/Информация : UTF-8 Plain Text
    Заголовок : Full
    Язык : Russian
    Default : Да
    Forced : Нет
    ENCODING_INFO : SUBRIP COPY Быстрое
    Текст #2
    Идентификатор : 5
    Формат : UTF-8
    Идентификатор кодека : S_TEXT/UTF8
    Идентификатор кодека/Информация : UTF-8 Plain Text
    Заголовок : Full
    Язык : English
    Default : Нет
    Forced : Нет
    ENCODING_INFO : SUBRIP COPY Быстрое
    Меню
    00: 00: 00.000 : : Глава 01
    00: 05: 26.993 : : Глава 02
    00: 09: 19.100 : : Глава 03
    00: 14: 21.110 : : Глава 04
    00: 23: 02.130 : : Глава 05
    00: 29: 52.791 : : Глава 06
    00: 34: 16.471 : : Глава 07
    00: 40: 27.883 : : Глава 08
    00: 45: 19.925 : : Глава 09
    00: 51: 29.211 : : Глава 10
    00: 54: 27.931 : : Глава 11
    00: 57: 48.256 : : Глава 12
    01: 02: 55.897 : : Глава 13
    01: 09: 05.349 : : Глава 14
    01: 16: 59.239 : : Глава 15
    01: 23: 55.655 : : Глава 16

    Скриншоты для ознакомления



    Все одноименные релизы в Клубе
    Время раздачи: 19 - 23 (до появления первых 3-5 скачавших)

    Онлайн видео Во всё тяжкое



    Во всё тяжкое / The Professor (2018) HDRip [H.265] [10-bit] торрент скачать бесплатно
    Рейтинг →
     (голосов: 1, оценка 3/5, голосовать можно 1 раз )

    Другие торренты по теме:

  • Во всё тяжкое / The Professor (2018) BDRemux [H.264 / 1080p] [MVO]
  • Во всё тяжкое / The Professor (2018) BDRip [H.264 / 1080p] [MVO]
  • Во всё тяжкое / The Professor (2018) BDRip [H.264 / 720p-LQ] [MVO]
  • Во всё тяжкое / The Professor (2018) BDRip [H.264 / 1080p-LQ] [MVO]
  • Во всё тяжкое (Ричард прощается) / The Professor (2018) BDRemux [H.264 / 1080p]
  • Во всё тяжкое / The Professor (2018) BDRip [H.264 / 720p-LQ]
  • Во всё тяжкое / The Professor (2018) BDRip [H.264 / 1080p-LQ]
  • Во всё тяжкое / The Professor (2018) BDRip [H.264 / 1080p]


    • Комментарии (0):

      Информация

      Информация

        Посетители, находящиеся в группе Гости, не могут оставлять комментарии в данной новости.

        ↓ Меню




        ↓ Опрос

        Вы добавили сайт в закладки?
        Да
        Нет


        Популярное