.
Авторизация | Регистрация
bitok.xyz
Торрент скачать бесплатно Фильмы торрент скачать Джуди / Judy (2019) BDRip [H.265 / 720p] [10-bit] [PR] торрент скачать бесплатно


    Джуди / Judy (2019) BDRip [H.265 / 720p] [10-bit] [PR] торрент скачать бесплатно

    Дата: 28-01-2020, 05:00 | .torrent скачали: 1

    Джуди / Judy (2019) BDRip [H.265 / 720p] [10-bit] [PR]Производство: Великобритания/BBC Films, Calamity Films, Pathe UK
    Жанр: Драма, мелодрама, биография
    Режиссер: Руперт Гулд

    Актеры
    Рене Зеллвегер, Финн Уиттрок, Джесси Бакли, Руфус Сьюэлл, Майкл Гэмбон, Ричард Кордери, Ройс Пирресон, Дарси Шоу, Энди Найман, Дэниэл Серкера

    Описание

    Фильм рассказывает о последних концертах голливудской звезды Джуди Гарлэнд в Лондоне в 1968 году. Звезда Волшебника страны Оз готовится к шоу, ссорится с руководством, очаровывает музыкантов. Это хрупкая женщина, которую истощили годы тяжелой работы и тоска по детям.

    Возраст: 16+ (зрителям, достигшим 16 лет)
    Рейтинг MPAA: PG-13 (детям до 13 лет просмотр нежелателен)
    Дата мировой премьеры: 30 августа 2019
    Дата премьеры в России: 17 октября 2019

    Продолжительность: 01: 58: 18
    Качество видео: BDRip (720p)
    Перевод: Дублированный (iTunes)
    Субтитры: Отсутствуют
    Видео: HEVC/H.265, 1280x536, 3816 Kbps
    Аудио 1 : AC3, 6 ch, 384 Kbps | Русский
    Аудио 2 : AC3, 6 ch, 448 Kbps | АнглийскийОбщее
    Уникальный идентификатор : 291226993085148802792818069107499574510 (0xDB1847563D35BDDCD562147684DBA4EE)
    Полное имя : Judy.2019.BDRip.720p.HEVC.mkv
    Формат : Matroska
    Версия формата : Version 4/Version 2
    Размер файла : 3, 92 Гбайт
    Продолжительность : 1 ч. 58 м.
    Общий поток : 4742 Кбит/сек
    Программа кодирования : XviD4PSP 8.0.96
    Библиотека кодирования : Lavf58.29.100
    ErrorDetectionType : Per level 1
    ENCODING_INFO : BluRay MKV Пользовательский 2
    Видео
    Идентификатор : 1
    Формат : HEVC
    Формат/Информация : High Efficiency Video Coding
    Профиль формата : Main10@L4.1@High
    Идентификатор кодека : V_MPEGH/ISO/HEVC
    Продолжительность : 1 ч. 58 м.
    Битрейт : 3816 Кбит/сек
    Ширина : 1280 пикселей
    Высота : 536 пикселей
    Соотношение сторон : 2, 40: 1
    Режим частоты кадров : Постоянный
    Частота кадров : 23, 976 (24000/1001) кадра/сек
    Цветовое пространство : YUV
    Субдискретизация насыщенности : 4: 2: 0
    Битовая глубина : 10 бит
    Бит/(Пиксели*Кадры) : 0.232
    Размер потока : 3, 15 Гбайт (80%)
    Default : Да
    Forced : Нет
    Цветовой диапазон : Limited
    Основные цвета : BT.709
    Характеристики трансфера : BT.709
    Коэффициенты матрицы : BT.709
    ENCODING_INFO : H264 HEVC NVENC VBR 4000kbps HQ
    Аудио #1
    Идентификатор : 2
    Формат : AC-3
    Формат/Информация : Audio Coding 3
    Параметр Endianness формата : Big
    Идентификатор кодека : A_AC3
    Продолжительность : 1 ч. 58 м.
    Вид битрейта : Постоянный
    Битрейт : 384 Кбит/сек
    Каналы : 6 каналов
    Расположение каналов : Front: L C R, Side: L R, LFE
    Частота : 48, 0 КГц
    Частота кадров : 31, 250 кадров/сек (1536 SPF)
    Битовая глубина : 16 бит
    Метод сжатия : С потерями
    Размер потока : 325 Мбайт (8%)
    Язык : Russian
    ServiceKind/String : Complete Main
    Default : Да
    Forced : Нет
    ENCODING_INFO : AC3 COPY Безопасное
    Аудио #2
    Идентификатор : 3
    Формат : AC-3
    Формат/Информация : Audio Coding 3
    Параметр Endianness формата : Big
    Идентификатор кодека : A_AC3
    Продолжительность : 1 ч. 58 м.
    Вид битрейта : Постоянный
    Битрейт : 448 Кбит/сек
    Каналы : 6 каналов
    Расположение каналов : Front: L C R, Side: L R, LFE
    Частота : 48, 0 КГц
    Частота кадров : 31, 250 кадров/сек (1536 SPF)
    Битовая глубина : 16 бит
    Метод сжатия : С потерями
    Размер потока : 379 Мбайт (9%)
    Язык : English
    ServiceKind/String : Complete Main
    Default : Нет
    Forced : Нет
    ENCODING_INFO : DTS-HD MA AC3 CBR 448kbps
    Меню
    00: 00: 00.000 : : Глава 1
    00: 05: 35.334 : : Глава 2
    00: 13: 02.782 : : Глава 3
    00: 21: 22.280 : : Глава 4
    00: 28: 03.682 : : Глава 5
    00: 35: 43.141 : : Глава 6
    00: 45: 33.731 : : Глава 7
    00: 50: 26.023 : : Глава 8
    00: 57: 15.431 : : Глава 9
    01: 04: 23.484 : : Глава 10
    01: 12: 23.338 : : Глава 11
    01: 20: 22.818 : : Глава 12
    01: 30: 48.443 : : Глава 13
    01: 35: 09.328 : : Глава 14
    01: 40: 34.028 : : Глава 15
    01: 51: 18.671 : : Глава 16
    01: 58: 17.924 : : Глава 17

    Скриншоты для ознакомления



    Все одноименные релизы в Клубе
    Время раздачи: 19 - 23 (до появления первых 3-5 скачавших)

    Онлайн видео Джуди



    Джуди / Judy (2019) BDRip [H.265 / 720p] [10-bit] [PR] торрент скачать бесплатно
    Рейтинг →
     (голосов: 1, оценка 4/5, голосовать можно 1 раз )

    Другие торренты по теме:

  • Джуди / Judy (2019) BDRip
  • Джуди / Judy (2019) BDRip [H.264 / 1080p]
  • Джуди / Judy (2019) BDRemux [H.264 / 1080p]
  • Джуди / Judy (2019) BDRip [H.265] [10-bit]
  • Святая Джуди / Saint Judy (2018) WEB-DL [H.264 / 1080p-LQ]


    • Комментарии (0):

      Информация

      Информация

        Посетители, находящиеся в группе Гости, не могут оставлять комментарии в данной новости.

        ↓ Меню




        ↓ Опрос

        Вы добавили сайт в закладки?
        Да
        Нет


        Популярное