.
Авторизация | Регистрация
bitok.xyz
Торрент скачать бесплатно Фильмы торрент скачать Доктор Сон / Doctor Sleep (2019) UHD BDRip [H.265 / 2160p] [4K, HDR, 10-bit] [Theatrical Cut] торрент скачать бесплатно

    Доктор Сон / Doctor Sleep (2019) UHD BDRip [H.265 / 2160p] [4K, HDR, 10-bit] [Theatrical Cut] торрент скачать бесплатно

    Дата: 28-01-2020, 05:00 | .torrent скачали: 0

    Доктор Сон / Doctor Sleep (2019) UHD BDRip [H.265 / 2160p] [4K, HDR, 10-bit] [Theatrical Cut]Производство: США, Великобритания | Warner Bros., Intrepid Pictures, Vertigo Ent.
    Жанр: Ужасы, фэнтези, триллер, драма
    Режиссер: Майк Флэнеган
    Продюсер: Джон Берг, Акива Голдсман, Стивен Кинг

    Актеры
    Юэн Макгрегор, Ребекка Фергюсон, Кайли Кёрран, Брюс Гринвуд, Зан Маккларнон, Клифф Кёртис, Карл Ламбли, Джейкоб Тремблей, Закари Момо, Эмили Элин Линд

    Описание

    Прошло много лет с тех пор, как мальчик с паранормальными способностями Дэнни Торранс пережил кошмарный сезон любимого сериала в отеле Оверлук, где стал свидетелем гибели своего отца. Повзрослев, Дэн вёл жизнь маргинала-алкоголика, а теперь пытается завязать и устроился на работу в дом престарелых. Там он безошибочно определяет, кому из постояльцев подошла очередь покинуть этот мир, за что и получил прозвище Доктор Сон. Однажды с Дэном устанавливает связь невероятно одарённая сияющая девочка Абра. Вскоре ей потребуется его помощь, чтобы противостоять членам организации Истинный узел — группы охотников за особенными детьми.

    Возраст: 18+ (зрителям, достигшим 18 лет. запрещено для детей)
    Рейтинг MPAA: R (лицам до 17 лет обязательно присутствие взрослого)
    Дата мировой премьеры: 30 октября 2019
    Дата российской премьеры: 7 ноября 2019, Каро-Премьер
    Релиз от: NNMClub
    Продолжительность: 02: 32: 01
    Качество видео: UHD BDRip (CHD )
    Перевод: Дублированный (Лицензия BD CEE)
    Субтитры: Русские (Forced, Full), английские (Full, SDH)
    Видео: HEVC/H.265, 3840x2076, ~21.3 Mbps, 23.976 fps
    Аудио 1: AC3, 6 ch, 448 Kbps | Русский (DUB)
    Аудио 2: AC3, 2 ch, 192 Kbps | Украинский (DUB-iTunes)
    Аудио 3: AC3, 6 ch, 640 Kbps | Английский (Оригинал)ENCODER.........: Anonymous @ CHD
    x265 info: frame I: 1605, Avg QP: 14.00 kb/s: 91789.80
    x265 info: frame P: 29662, Avg QP: 15.27 kb/s: 45857.87
    x265 info: frame B: 187429, Avg QP: 17.92 kb/s: 16829.04
    General
    Complete name : : Доктор Сон_Doctor Sleep (2019) UHD BDRip.H.265.2160p.HDR.10.bit.Theatrical Cut.NNMClub.mkv
    Format : Matroska
    Format version : Version 4
    File size : 24.0 GiB
    Duration : 2 h 32 min
    Overall bit rate : 22.6 Mb/s
    Movie name : Доктор Сон_Doctor Sleep (2019) UHD BDRip.H.265.2160p.HDR.10.bit.Theatrical Cut.NNMClub
    Encoded date : UTC 2020-01-27 09: 42: 26
    Writing application : mkvmerge v40.0.0 (\'Old Town Road + Pony\') 64-bit
    Writing library : libebml v1.3.9 + libmatroska v1.5.2
    Video
    ID : 1
    Format : HEVC
    Format/Info : High Efficiency Video Coding
    Format profile : Main 10@L5@Main
    HDR format : SMPTE ST 2086, HDR10 compatible
    Codec ID : V_MPEGH/ISO/HEVC
    Duration : 2 h 32 min
    Bit rate : 21.3 Mb/s
    Width : 3 840 pixels
    Height : 2 076 pixels
    Display aspect ratio : 1.85: 1
    Frame rate mode : Constant
    Frame rate : 23.976 (23976/1000) FPS
    Color space : YUV
    Chroma subsampling : 4: 2: 0
    Bit depth : 10 bits
    Bits/(Pixel*Frame) : 0.112
    Stream size : 22.6 GiB (94%)
    Title : Doctor Sleep 2019 BluRay 2160p HDR x265.10bit-CHD
    Writing library : x265 3.2+7-gb291a1c95+26: WindowsMSVC 191664 bit Yuuki 10bit
    Encoding settings : rc=crf/crf=16.0000/qcomp=0.82/qpstep=4/stats-write=0/stats-read=0/no-lossless/no-cu-lossless/aq-mode=1/aq-strength=1.00/cbqpoffs=0/crqpoffs=0/ipratio=1.40/pbratio=1.30/psy-rd=1.10/psy-rdoq=0.00/deblock=-1: -1/ref=4/limit-refs=1/no-limit-modes/bframes=14/b-adapt=2/bframe-bias=0/b-pyramid/b-intra/weightp/weightb/min-keyint=23/max-keyint=250/rc-lookahead=24/gop-lookahead=0/scenecut=40/radl=0/max-cu-size=64/min-cu-size=8/me=3/subme=7/merange=64/rdoq-level=0/rd=5/rdpenalty=0/dynamic-rd=0.00/no-rd-refine/-----/cutree/sao/no-rect/no-amp/no-open-gop/wpp/no-pmode/pme/no-psnr/no-ssim/nr-intra=0/nr-inter=0/no-constrained-intra/no-strong-intra-smoothing/max-tu-size=32/tu-inter-depth=1/tu-intra-depth=1/limit-tu=0/qg-size=32/qpmax=69/qpmin=0/-----/cpuid=1111039/frame-threads=6/numa-pools=36, 36/log-level=2/input-csp=1/input-res=3840x2076/interlace=0/level-idc=0/high-tier=1/uhd-bd=0/no-allow-non-conformance/repeat-t_heads/no-aud/no-hrd/info/hash=0/no-temporal-layers/lookahead-slices=8/no-splice/no-intra-refresh/no-ssim-rd/signhide/no-tskip/max-merge=3/temporal-mvp/no-hme/no-analyze-src-pics/no-sao-non-deblock/selective-sao=4/early-skip/rskip/no-fast-intra/no-tskip-fast/no-splitrd-skip/zone-count=0/no-strict-cbr/no-rc-grain/no-const-vbv/sar=0/overscan=0/videoformat=5/range=0/colorprim=9/transfer=16/colormatrix=9/chromaloc=0/display-window=0/master-display=G(13250, 34500)B(7500, 3000)R(34000, 16000)WP(15635, 16450)L(10000000, 1)/cll=0, 0/min-luma=0/max-luma=1023/log2-max-poc-lsb=8/vui-timing-info/vui-hrd-info/slices=1/no-opt-qp-pps/no-opt-ref-list-length-pps/no-multi-pass-opt-rps/scenecut-bias=0.05/no-opt-cu-delta-qp/aq-motion/hdr/hdr-opt/no-dhdr10-opt/no-idr-recovery-sei/analysis-reuse-level=5/scale-factor=0/refine-intra=0/refine-inter=0/refine-mv=1/refine-ctu-distortion=0/no-limit-sao/ctu-info=0/no-lowpass-dct/refine-analysis-type=0/copy-pic=1/max-ausize-factor=1.0/no-dynamic-refine/no-single-sei/no-hevc-aq/no-svt/no-field/qp-adaptation-range=1.00
    Language : English
    Default : Yes
    Forced : No
    Color range : Limited
    Color primaries : BT.2020
    Transfer characteristics : PQ
    Matrix coefficients : BT.2020 non-constant
    Mastering display color primaries : Display P3
    Mastering display luminance : min: 0.0001 cd/m2, max: 1000 cd/m2
    Audio #1
    ID : 2
    Format : AC-3
    Format/Info : Audio Coding 3
    Commercial name : Dolby Digital
    Codec ID : A_AC3
    Duration : 2 h 32 min
    Bit rate mode : Constant
    Bit rate : 448 kb/s
    Channel(s) : 6 channels
    Channel layout : L R C LFE Ls Rs
    Sampling rate : 48.0 kHz
    Frame rate : 31.250 FPS (1536 SPF)
    Compression mode : Lossy
    Stream size : 487 MiB (2%)
    Title : Дублированный (Лицензия BD CEE)
    Language : Russian
    Service kind : Complete Main
    Default : Yes
    Forced : Yes
    Audio #2
    ID : 3
    Format : AC-3
    Format/Info : Audio Coding 3
    Commercial name : Dolby Digital
    Codec ID : A_AC3
    Duration : 2 h 32 min
    Bit rate mode : Constant
    Bit rate : 192 kb/s
    Channel(s) : 2 channels
    Channel layout : L R
    Sampling rate : 48.0 kHz
    Frame rate : 31.250 FPS (1536 SPF)
    Compression mode : Lossy
    Stream size : 209 MiB (1%)
    Title : Дублированный - iTunes
    Language : Ukrainian
    Service kind : Complete Main
    Default : No
    Forced : No
    Audio #3
    ID : 4
    Format : AC-3
    Format/Info : Audio Coding 3
    Commercial name : Dolby Digital
    Codec ID : A_AC3
    Duration : 2 h 32 min
    Bit rate mode : Constant
    Bit rate : 640 kb/s
    Channel(s) : 6 channels
    Channel layout : L R C LFE Ls Rs
    Sampling rate : 48.0 kHz
    Frame rate : 31.250 FPS (1536 SPF)
    Compression mode : Lossy
    Stream size : 696 MiB (3%)
    Title : Оригинал
    Language : English
    Service kind : Complete Main
    Default : No
    Forced : No
    Text #1
    ID : 5
    Format : UTF-8
    Codec ID : S_TEXT/UTF8
    Codec ID/Info : UTF-8 Plain Text
    Duration : 2 h 14 min
    Bit rate : 1 b/s
    Count of elements : 42
    Stream size : 1.47 KiB (0%)
    Title : Forced
    Language : Russian
    Default : Yes
    Forced : Yes
    Text #2
    ID : 6
    Format : UTF-8
    Codec ID : S_TEXT/UTF8
    Codec ID/Info : UTF-8 Plain Text
    Duration : 2 h 25 min
    Bit rate : 60 b/s
    Count of elements : 1656
    Stream size : 64.7 KiB (0%)
    Title : Full
    Language : Russian
    Default : No
    Forced : No
    Text #3
    ID : 7
    Format : UTF-8
    Codec ID : S_TEXT/UTF8
    Codec ID/Info : UTF-8 Plain Text
    Duration : 2 h 14 min
    Bit rate : 1 b/s
    Count of elements : 43
    Stream size : 1.74 KiB (0%)
    Title : Forced
    Language : Ukrainian
    Default : No
    Forced : No
    Text #4
    ID : 8
    Format : UTF-8
    Codec ID : S_TEXT/UTF8
    Codec ID/Info : UTF-8 Plain Text
    Duration : 2 h 25 min
    Bit rate : 37 b/s
    Count of elements : 1693
    Stream size : 39.7 KiB (0%)
    Title : Full
    Language : English
    Default : No
    Forced : No
    Text #5
    ID : 9
    Format : UTF-8
    Codec ID : S_TEXT/UTF8
    Codec ID/Info : UTF-8 Plain Text
    Duration : 2 h 25 min
    Bit rate : 42 b/s
    Count of elements : 1943
    Stream size : 45.4 KiB (0%)
    Title : SDH
    Language : English
    Default : No
    Forced : No
    Menu
    00: 00: 00.000 : en: Chapter 01
    00: 10: 36.302 : en: Chapter 02
    00: 19: 44.350 : en: Chapter 03
    00: 29: 23.345 : en: Chapter 04
    00: 39: 51.931 : en: Chapter 05
    00: 49: 47.318 : en: Chapter 06
    00: 58: 24.710 : en: Chapter 07
    01: 06: 00.748 : en: Chapter 08
    01: 11: 00.756 : en: Chapter 09
    01: 20: 35.497 : en: Chapter 10
    01: 27: 07.013 : en: Chapter 11
    01: 35: 13.458 : en: Chapter 12
    01: 44: 01.902 : en: Chapter 13
    01: 52: 52.724 : en: Chapter 14
    02: 01: 22.734 : en: Chapter 15
    02: 08: 01.507 : en: Chapter 16
    02: 17: 27.156 : en: Chapter 17
    02: 23: 06.703 : en: Chapter 18
    02: 26: 22.107 : en: Chapter 19


    Онлайн видео Доктор Сон



    Доктор Сон / Doctor Sleep (2019) UHD BDRip [H.265 / 2160p] [4K, HDR, 10-bit] [Theatrical Cut] торрент скачать бесплатно
    Рейтинг →
     (голосов: 1, оценка 3/5, голосовать можно 1 раз )

    Другие торренты по теме:

  • Доктор Кто. Возвращение Доктора Мистерио / Doctor Who. The Return of Doctor Mysterio (2016) WEB-DL [H.264 / 1080p-LQ] (сезон 10, серия 0) BaibaKo
  • Доктор Кто / Doctor Who (2014) WEB-DL [H.264 / 720p-LQ] (Сезон 8, серии 1-6 из 12) (BaibaKo) (обновляемая) скачать через торрент бесплатно
  • Доктор Кто / Doctor Who (2014) WEB-DLRip (Сезон 8, серии 1-6 из 12) (BaibaKo) (обновляемая) скачать через торрент бесплатно
  • Доктор Блейк / The Doctor Blake Mysteries (2014) WEB-DLRip (Сезон 2 / Серии 1-4 из 10) DreamRecords (обновляемая) скачать через торрент бесплатно
  • Доктор Кто / Doctor Who (2014) BDRip [H.264 / 1080р-LQ] (сезон 8, серии 0 - 13 из 13) (BaibaKo) скачать через торрент бесплатно
  • Доверьтесь мне, я доктор (фильм 1) / Trust Me, Im A Doctor (2013) IPTVRip скачать через торрент бесплатно
  • Доктор в ловушке / Doctor in Trouble (1970) DVDRip [H.264] скачать через торрент бесплатно
  • Доктор и его медсестры / Doctor in Clover (1966) DVDRip [H.264] скачать через торрент бесплатно


    • Комментарии (0):

      Информация

      Информация

        Посетители, находящиеся в группе Гости, не могут оставлять комментарии в данной новости.

        ↓ Меню




        ↓ Опрос

        Вы добавили сайт в закладки?
        Да
        Нет


        Популярное