.
Авторизация | Регистрация
bitok.xyz
Торрент скачать бесплатно Фильмы торрент скачать Царь (2009) BDRip [H.265 / 1080p-LQ] [10-bit] торрент скачать бесплатно


    Царь (2009) BDRip [H.265 / 1080p-LQ] [10-bit] торрент скачать бесплатно

    Дата: 28-01-2020, 05:00 | .torrent скачали: 0

    Царь (2009) BDRip [H.265 / 1080p-LQ] [10-bit]Производство: Россия, Профит, Мастерская Павла Лунгина
    Жанр: Драма, История
    Режиссер: Павел Лунгин
    Продюсер: Павел Лунгин, Василий Бернхардт, Ольга Васильева

    Актеры
    Петр Мамонов, Олег Янковский, Юрий Кузнецов, Александр Домогаров, Анастасия Донцова, Алексей Макаров, Александр Негодайлов, Иван Охлобыстин, Алексей Франдетти, Вилле Хаапасало

    Описание

    1565 год. Темные времена. Правление Ивана Грозного. Русь растерзана голодом и ливонской войной. Во всем мерещатся правителю измена и предательство. Его верные слуги, опричники, залили страну кровью. В каждом готовы они увидеть государева врага. Главный закон для них — царь. Единственный, кто пошел против царской воли и опричных злодейств, — митрополит Филипп, верный друг детства Ивана Грозного. Он возвысил голос свой и принес себя в жертву. Это противостояние расскажет о том, на что была способна Русь и в падении и в величии духа.

    Возраст: 18+ (зрителям, достигшим 18 лет. запрещено для детей)
    Рейтинг MPAA : PG 13 (детям до 13 просмотр нежелателен)
    Релиз от: ZixGeeSu
    Продолжительность: 02: 03: 16
    Качество видео: BDRip
    Субтитры: Нет
    Видео: HEVC/H.26510-bit , 1920x816, ~5860 Kbps
    Аудио: AC3, 6 ch, 640 Kbps
    Format : Matroska
    Format version : Version 4
    File size : 5.71 GiB
    Duration : 2 h 3 min
    Overall bit rate : 6 632 kb/s
    Encoded date : UTC 2020-01-24 23: 58: 07
    Writing application : HandBrake 1.2.2 2019022300
    Writing library : Lavf58.20.100
    ErrorDetectionType : Per level 1
    Video
    ID : 1
    Format : HEVC
    Format/Info : High Efficiency Video Coding
    Format profile : Main 10@L4@Main
    Codec ID : V_MPEGH/ISO/HEVC
    Duration : 2 h 3 min
    Bit rate : 5 860 kb/s
    Width : 1 920 pixels
    Height : 816 pixels
    Display aspect ratio : 2.35: 1
    Frame rate mode : Constant
    Frame rate : 23.976 (24000/1001) FPS
    Color space : YUV
    Chroma subsampling : 4: 2: 0
    Bit depth : 10 bits
    Bits/(Pixel*Frame) : 0.156
    Stream size : 5.05 GiB (88%)
    Writing library : x265 2.9: WindowsGCC 8.2.064 bit 10bit
    Encoding settings : cpuid=1111039/frame-threads=5/numa-pools=16/wpp/no-pmode/no-pme/no-psnr/no-ssim/log-level=2/input-csp=1/input-res=1920x816/interlace=0/total-frames=0/level-idc=0/high-tier=1/uhd-bd=0/ref=1/no-allow-non-conformance/no-repeat-t_heads/annexb/no-aud/no-hrd/info/hash=0/no-temporal-layers/open-gop/min-keyint=24/keyint=240/gop-lookahead=0/bframes=8/b-adapt=2/b-pyramid/bframe-bias=0/rc-lookahead=48/lookahead-slices=4/scenecut=40/radl=0/no-intra-refresh/ctu=64/min-cu-size=8/rect/no-amp/max-tu-size=32/tu-inter-depth=1/tu-intra-depth=1/limit-tu=0/rdoq-level=2/dynamic-rd=0.00/no-ssim-rd/signhide/no-tskip/nr-intra=0/nr-inter=0/no-constrained-intra/strong-intra-smoothing/max-merge=3/limit-refs=3/limit-modes/me=3/subme=7/merange=57/temporal-mvp/weightp/no-weightb/no-analyze-src-pics/deblock=-6: -6/no-sao/no-sao-non-deblock/rd=4/no-early-skip/no-rskip/no-fast-intra/no-tskip-fast/no-cu-lossless/no-b-intra/no-splitrd-skip/rdpenalty=0/psy-rd=2.50/psy-rdoq=2.00/no-rd-refine/no-lossless/cbqpoffs=0/crqpoffs=0/rc=crf/crf=25.0/qcomp=1.00/qpstep=15/stats-write=0/stats-read=0/ipratio=1.10/pbratio=1.00/aq-mode=2/aq-strength=1.00/no-cutree/zone-count=0/no-strict-cbr/qg-size=32/rc-grain/qpmax=69/qpmin=0/no-const-vbv/sar=1/overscan=0/videoformat=5/range=0/colorprim=1/transfer=1/colormatrix=1/chromaloc=0/display-window=0/max-cll=0, 0/min-luma=0/max-luma=1023/log2-max-poc-lsb=8/vui-timing-info/vui-hrd-info/slices=1/no-opt-qp-pps/no-opt-ref-list-length-pps/no-multi-pass-opt-rps/scenecut-bias=0.05/no-opt-cu-delta-qp/no-aq-motion/no-hdr/no-hdr-opt/no-dhdr10-opt/no-idr-recovery-sei/analysis-reuse-level=5/scale-factor=0/refine-intra=0/refine-inter=0/refine-mv=0/no-limit-sao/ctu-info=0/no-lowpass-dct/refine-mv-type=0/copy-pic=1/max-ausize-factor=1.0/no-dynamic-refine/no-single-sei
    Default : Yes
    Forced : No
    Color range : Limited
    Color primaries : BT.709
    Transfer characteristics : BT.709
    Matrix coefficients : BT.709
    Audio
    ID : 2
    Format : AC-3
    Format/Info : Audio Coding 3
    Commercial name : Dolby Digital
    Codec ID : A_AC3
    Duration : 2 h 3 min
    Bit rate mode : Constant
    Bit rate : 640 kb/s
    Channel(s) : 6 channels
    Channel layout : L R C LFE Ls Rs
    Sampling rate : 48.0 kHz
    Frame rate : 31.250 FPS (1536 SPF)
    Bit depth : 16 bits
    Compression mode : Lossy
    Delay relative to video : -5 ms
    Stream size : 564 MiB (10%)
    Title : Surround
    Service kind : Complete Main
    Default : Yes
    Forced : No


    Онлайн видео Царь (2009) BDRip [H.265



    Царь (2009) BDRip [H.265 / 1080p-LQ] [10-bit] торрент скачать бесплатно
    Рейтинг →
     (голосов: 1, оценка 5/5, голосовать можно 1 раз )

    Другие торренты по теме:

  • Царь скорпионов 4: Утерянный трон / The Scorpion King: The Lost Throne / The Scorpion King 4: Quest for Power (2015) BDRip [1080p] [EN] скачать через торрент бесплатно
  • Царь скорпионов 4: Утерянный трон / The Scorpion King: The Lost Throne / The Scorpion King 4: Quest for Power (2015) BDRip [720p] [EN] скачать через торрент бесплатно
  • Царь скорпионов 4: Утерянный трон / The Scorpion King: The Lost Throne / The Scorpion King 4: Quest for Power (2015) BDRip [H.264]
  • Царь скорпионов 4: Утерянный трон / The Scorpion King: The Lost Throne / The Scorpion King 4: Quest for Power (2015) BDRip
  • Царь скорпионов 4: Утерянный трон / The Scorpion King: The Lost Throne / The Scorpion King 4: Quest for Power (2015) BDRip [720p]
  • Царь скорпионов 4: Утерянный трон / The Scorpion King: The Lost Throne / The Scorpion King 4: Quest for Power (2015) BDRip [1080p]
  • Царь скорпионов 4: Утерянный трон / The Scorpion King: The Lost Throne (2015) BDRip [576p] iPad
  • Царь скорпионов 4: Утерянный трон / The Scorpion King: The Lost Throne (2015) BDRip [1080p] ATV скачать через торрент бесплатно


    • Комментарии (0):

      Информация

      Информация

        Посетители, находящиеся в группе Гости, не могут оставлять комментарии в данной новости.

        ↓ Меню




        ↓ Опрос

        Вы добавили сайт в закладки?
        Да
        Нет


        Популярное