.
Авторизация | Регистрация
bitok.xyz
Торрент скачать бесплатно Фильмы торрент скачать Глубокое течение (2005) SATRip торрент скачать бесплатно


    Глубокое течение (2005) SATRip торрент скачать бесплатно

    Дата: 28-01-2020, 05:00 | .torrent скачали: 1

    Глубокое течение (2005) SATRipПроизводство: Беларусь/Беларусьфильм
    Жанр: Драма, военный
    Режиссер: Маргарита Касымова, Иван Павлов

    Актеры
    Ярослав Иванов, Александр Беспалый, Екатерина Васильева, Владимир Грицевский, Анатолий Гурьев, Елена Дубровская, Александр Жданович, Александр Кашперов, Зинаида Кириенко, Марина Коняшкина

    Описание

    Фильм снят по мотивам романов Ивана Шамякина Снежные зимы и Глубокое течение.
    Великая Отечественная война всколыхнула все мирное население белорусской земли. Проблема выстоять, защитить и освободить свой край от немецко-фашистских захватчиков стала главной и для тех, кто остался в тылу врага.
    Иван Антонюк — бывший заведующий отделом исполкома — становится командиром партизанского отряда. В это трудное время ему пришлось учиться принимать правильное решение в организации партизанского движения, находить единственный верный выход в сложных переплетениях военных событий, испытывать горечь потерь и зарождение глубокого чувства любви…

    Возраст: 16+ (зрителям, достигшим 16 лет)
    Релиз от: Алехаndr
    Продолжительность: 01: 32: 05
    Качество видео: SATRip
    Язык озвучки: русский
    Субтитры: отсутствуют
    Видео: Xvid, 692x480 (3: 2), ~1930 Kbps
    Аудио: AC3, 2 ch, 192 Kbps
    Общее
    Полное имя : D: Глубокое течение (2005).by.Алехаndr.avi
    Формат : AVI
    Формат/Информация : Audio Video Interleave
    Профиль формата : OpenDML
    Размер файла : 1, 37 Гбайт
    Продолжительность : 1 ч. 32 м.
    Общий поток : 2133 Кбит/сек
    Программа кодирования : Lavf58.20.100
    Видео
    Идентификатор : 0
    Формат : MPEG-4 Visual
    Профиль формата : Advanced Simple@L5
    Настройки формата : BVOP2
    Параметр BVOP формата : 2
    Параметр QPel формата : Нет
    Параметр GMC формата : Без точки перехода
    Параметр матрицы формата : Default (MPEG)
    Идентификатор кодека : XVID
    Идентификатор кодека/Подсказка : XviD
    Продолжительность : 1 ч. 32 м.
    Битрейт : 1929 Кбит/сек
    Ширина : 692 пикселя
    Высота : 480 пикселей
    Соотношение сторон : 3: 2
    Частота кадров : 25, 000 кадров/сек
    Цветовое пространство : YUV
    Субдискретизация насыщенности : 4: 2: 0
    Битовая глубина : 8 бит
    Тип развёртки : Прогрессивная
    Тип развёртки в оригинале : Чересстрочная
    Порядок развёртки в оригинале : Верхнее поле первое
    Метод сжатия : С потерями
    Бит/(Пиксели*Кадры) : 0.232
    Размер потока : 1, 24 Гбайт (90%)
    Библиотека кодирования : XviD 67
    Аудио
    Идентификатор : 1
    Формат : AC-3
    Формат/Информация : Audio Coding 3
    Коммерческое название : Dolby Digital
    Идентификатор кодека : 2000
    Продолжительность : 1 ч. 32 м.
    Вид битрейта : Постоянный
    Битрейт : 192 Кбит/сек
    Каналы : 2 канала
    ChannelLayout : L R
    Частота : 48, 0 КГц
    Частота кадров : 31, 250 кадров/сек (1536 SPF)
    Битовая глубина : 16 бит
    Метод сжатия : С потерями
    Размер потока : 126 Мбайт (9%)
    Выравнивание : Соединение по промежуткам
    Продолжительность промежутка : 32 мс. (0, 80 видеокадр)
    ServiceKind/String : Complete Main

    Скриншоты для ознакомления



    Все одноименные релизы в Клубе
    Время раздачи: 24/7 (круглосуточно) (до появления первых 3-5 скачавших)

    Онлайн видео Бутылочная ракета



    Глубокое течение (2005) SATRip торрент скачать бесплатно
    Рейтинг →
     (голосов: 1, оценка 3/5, голосовать можно 1 раз )

    Другие торренты по теме:

  • Глубокое синее море / Deep Blue Sea (1999) BDRip [H.264] скачать через торрент бесплатно
  • Глубокое погружение / The Rift (1990) DVDRip [AVO] скачать через торрент бесплатно
  • Глубокое синее море / Deep Blue Sea (1999) BDRip [H.264 / 1080p-LQ]
  • Глубокое погружение / The Rift (1990) BDRip [H.264] [AVO]
  • Глубокое синее море / Deep Blue Sea (1999) BDRip [H.264 / 1080p]
  • Глубокое синее море / Deep Blue Sea (1999) HDRip [AVO]
  • Сергей Николенко и др. | Глубокое обучение (2018) [PDF]
  • Ян Гудфеллоу и др. | Глубокое обучение (2017) [PDF]


    • Комментарии (0):

      Информация

      Информация

        Посетители, находящиеся в группе Гости, не могут оставлять комментарии в данной новости.

        ↓ Меню




        ↓ Опрос

        Вы добавили сайт в закладки?
        Да
        Нет


        Популярное