.
Авторизация | Регистрация
bitok.xyz
Торрент скачать бесплатно Фильмы торрент скачать Мелодия любви / Bao jian ta / Melody of Love (1978) DVD5 [custom] [VO] торрент скачать бесплатно


    Мелодия любви / Bao jian ta / Melody of Love (1978) DVD5 [custom] [VO] торрент скачать бесплатно

    Дата: 28-01-2020, 05:00 | .torrent скачали: 0

    Мелодия любви / Bao jian ta / Melody of Love (1978) DVD5 [custom] [VO]Производство: Гонконг, Тайвань, Shaw Brothers
    Жанр: Мелодрама, комедия
    Режиссер: Тун Фей Моу
    Продюсер: Ран Ран Шоу, Мона Фон, Фенг Лью

    Актеры
    Дэнни Ли, Ниу Ниу, Лок Хуа Лью, Йао Хсиао, Шан-Чиен Лью, Сзу-Чиа Чен, Су Ханг, Шен Юэнь, Лю Иньшан, Йен Ву

    Описание

    Трое молодых докторов, хирург, педиатр и терапевт, знакомятся с тремя молодыми девушками, но не просто знакомятся, а по приказу своего директора, который решает проверить парней насчет женского пола и дает им неделю, чтобы охмурить красоток. Девушки узнают об этом и сделают все, чтобы парни остались с носом.

    Релиз от: vitolinform
    Продолжительность: 01: 28: 03
    Качество видео: DVD5 custom
    Перевод: Одноголосый любительский (Виктор Береговых)
    Субтитры: отсутствуют
    Видео: MPEG-2, NTSC 16: 9 (720x480@853x480), fps 29.970, ~6400 Кbps
    Аудио 1: AC3, 2 ch, 192 Кbps | Русский (VO Виктор Береговых)
    Аудио 2: AC3, 2 ch, 192 Кbps | КитайскийMelodiya.lyubvi.1978.DVD5VIDEO_TSVTS_01_2.VOB
    Формат : MPEG-PS
    Размер файла : 1024 Мбайт
    Продолжительность : 20 м. 43 с.
    Режим общего битрейта : Переменный
    Общий поток : 6908 Кбит/сек
    Видео
    Идентификатор : 224 (0xE0)
    Формат : MPEG Video
    Версия формата : Version 2
    Профиль формата : Main@Main
    Настройки формата : CustomMatrix/BVOP
    Параметр BVOP формата : Да
    Параметр матрицы формата : Выборочная
    Параметр GOP формата : M=3, N=15
    Структура изображения : Frame
    Продолжительность : 20 м. 43 с.
    Вид битрейта : Переменный
    Битрейт : 6400 Кбит/сек
    Ширина : 720 пикселей
    Высота : 480 пикселей
    Соотношение сторон : 16: 9
    Частота кадров : 29, 970 (30000/1001) кадров/сек
    Стандарт вещания : NTSC
    Цветовое пространство : YUV
    Субдискретизация насыщенности : 4: 2: 0
    Битовая глубина : 8 бит
    Тип развёртки : Чересстрочная
    Порядок развёртки : Верхнее поле первое
    Метод сжатия : С потерями
    Бит/(Пиксели*Кадры) : 0.618
    Временной код первого кадра : 10: 20: 52: 06
    Оригинал временного кода : Group of pictures t_head
    GOP, открыто/закрыто : Открыто
    Размер потока : 947 Мбайт (92%)
    Аудио #1
    Идентификатор : 189 (0xBD)-128 (0x80)
    Формат : AC-3
    Формат/Информация : Audio Coding 3
    Коммерческое название : Dolby Digital
    Режим смешивания : DVD-Video
    Продолжительность : 20 м. 43 с.
    Вид битрейта : Постоянный
    Битрейт : 192 Кбит/сек
    Каналы : 2 канала
    ChannelLayout : L R
    Частота : 48, 0 КГц
    Частота кадров : 31, 250 кадров/сек (1536 SPF)
    Битовая глубина : 16 бит
    Метод сжатия : С потерями
    Задержка видео : -213 мс.
    Размер потока : 28, 5 Мбайт (3%)
    ServiceKind/String : Complete Main
    Аудио #2
    Идентификатор : 189 (0xBD)-129 (0x81)
    Формат : AC-3
    Формат/Информация : Audio Coding 3
    Коммерческое название : Dolby Digital
    Режим смешивания : DVD-Video
    Продолжительность : 20 м. 43 с.
    Вид битрейта : Постоянный
    Битрейт : 192 Кбит/сек
    Каналы : 2 канала
    ChannelLayout : L R
    Частота : 48, 0 КГц
    Частота кадров : 31, 250 кадров/сек (1536 SPF)
    Битовая глубина : 16 бит
    Метод сжатия : С потерями
    Задержка видео : -309 мс.
    Размер потока : 28, 5 Мбайт (3%)
    ServiceKind/String : Complete Main
    МенюTitle: Melodiya.lyubvi.1978.DVD5
    Size: 4.35 Gb ( 4 565 848, 00 KBytes ) - DVD-5
    Enabled regions: 1, 2, 3, 4, 5, 6, 7, 8
    VTS_01 :
    Play Length: 01: 28: 03
    Video: NTSC 16: 9 (720x480) VBR, Auto Letterboxed
    Audio:
    Russian, AC3, 2/0 (L, R) ch, 192 kbps, Delay 0 mSec
    Chinese, AC3, 2/0 (L, R) ch, 192 kbps, Delay 0 mSec
    VTS_02 :
    Play Length: 00: 00: 25
    Video: NTSC 16: 9 (720x480) VBR, Auto Letterboxed
    VTS_03 :
    Play Length: 00: 00: 11
    Video: NTSC 16: 9 (720x480) VBR, Auto Letterboxed
    Audio:
    Not specified, AC3, 2/0 (L, R) ch, 192 kbps, Delay 0 mSec
    VTS_04 :
    Play Length: 00: 00: 11
    Video: NTSC 16: 9 (720x480) VBR, Auto Letterboxed
    Audio:
    Not specified, AC3, 2/0 (L, R) ch, 192 kbps, Delay 0 mSec
    VTS_05 :
    Play Length: 00: 00: 10
    Video: NTSC 16: 9 (720x480) VBR, Auto Letterboxed
    Audio:
    Not specified, AC3, 2/0 (L, R) ch, 192 kbps, Delay 0 mSec
    VTS_06 :
    Play Length: 00: 01: 06
    Video: NTSC 16: 9 (720x480) VBR, Auto Letterboxed
    Audio:
    Chinese, AC3, 2/0 (L, R) ch, 192 kbps, Delay 0 mSec
    Subtitles:
    Chinese
    English
    VTS_07 :
    Play Length: 00: 01: 06
    Video: NTSC 16: 9 (720x480) VBR, Auto Letterboxed
    Audio:
    Chinese, AC3, 2/0 (L, R) ch, 192 kbps, Delay 0 mSec
    Chinese, AC3, 2/0 (L, R) ch, 192 kbps, Delay 0 mSec
    Subtitles:
    Chinese
    English
    VTS_08 :
    Play Length: 00: 01: 02
    Video: NTSC 16: 9 (720x480) VBR, Auto Letterboxed
    Audio:
    Chinese, AC3, 2/0 (L, R) ch, 192 kbps, Delay 0 mSec
    Subtitles:
    Chinese
    English
    VTS_09 :
    Play Length: 00: 01: 07
    Video: NTSC 16: 9 (720x480) VBR, Auto Letterboxed
    Audio:
    Chinese, AC3, 2/0 (L, R) ch, 192 kbps, Delay 0 mSec
    Chinese, AC3, 2/0 (L, R) ch, 192 kbps, Delay 0 mSec
    Subtitles:
    Chinese
    English

    Онлайн видео Мелодия любви



    Мелодия любви / Bao jian ta / Melody of Love (1978) DVD5 [custom] [VO] торрент скачать бесплатно
    Рейтинг →
     (голосов: 1, оценка 3/5, голосовать можно 1 раз )

    Другие торренты по теме:

  • Проекты - Проект ProShow Producer - Зимняя мелодия любви [PSH] скачать через торрент бесплатно
  • Мелодия любви (2018) WEB-DLRip [H.264 / 720p-LQ] (серии 1-4 из 4)
  • Мелодия любви / Bao jian ta / Melody of Love (1978) DVDRip [VO]


    • Комментарии (0):

      Информация

      Информация

        Посетители, находящиеся в группе Гости, не могут оставлять комментарии в данной новости.

        ↓ Меню




        ↓ Опрос

        Вы добавили сайт в закладки?
        Да
        Нет


        Популярное