.
Авторизация | Регистрация
bitok.xyz
Торрент скачать бесплатно Фильмы торрент скачать Billie Eilish feat. Khalid - Lovely (2018) WEBRip [H.264 / 1080p-LQ] торрент скачать бесплатно


    Billie Eilish feat. Khalid - Lovely (2018) WEBRip [H.264 / 1080p-LQ] торрент скачать бесплатно

    Дата: 28-01-2020, 05:00 | .torrent скачали: 2

    Billie Eilish feat. Khalid - Lovely (2018) WEBRip [H.264 / 1080p-LQ]Производство: Sony, ATV Music Publishing LLC, Kobalt Music Publishing Ltd., Universal Music Publishing Group
    Жанр: Indie, Pop, Alternative Rock

    Описание

    Lovely — песня в исполнении Billie Eilish и Khalid вышла 19 апреля 2018 года для официального саундтрека второго сезон любимого сериалаа драматического телесериала от Netflix 13 причин почему. Песня была включена в расширенное издание мини-альбома Billie Eilish: Don\'t Smile at Me (2017).
    Релиз от: SySat
    Качество видео: WEBRip
    Продолжительность: 00: 03: 20
    Видео: AVC/H.264, 1920x1080, ~4 691 Kbps
    Аудио1: AC-3, 2 ch, 640 Kbps
    Аудио2: AAC, 2 ch, 325 Kbps
    Аудио3: MP3, 2 ch, 320 Kbps
    Аудио4: FLAC, 2 ch, 780 Kbps
    Аудио5: Vorbis, 2 ch, 500 Kbps
    Аудио6: Opus, 2 ch, 494 Kbps
    Format : Matroska
    Format version : Version 4
    File size : 186 MiB
    Duration : 3 min 20 s
    Overall bit rate mode : Variable
    Overall bit rate : 7 772 kb/s
    Encoded date : UTC 2020-01-26 19: 31: 21
    Writing application : mkvmerge v43.0.0 (\'The Quartermaster\') 64-bit
    Writing library : libebml v1.3.10 + libmatroska v1.5.2
    Cover : Yes
    Attachments : cover.jpg
    Video
    ID : 1
    Format : AVC
    Format/Info : Advanced Video Codec
    Format profile : High@L4.1
    Format settings : CABAC/4 Ref Frames
    Format settings, CABAC : Yes
    Format settings, ReFrames : 4 frames
    Codec ID : V_MPEG4/ISO/AVC
    Duration : 3 min 20 s
    Bit rate : 4 691 kb/s
    Width : 1 920 pixels
    Height : 1 080 pixels
    Display aspect ratio : 16: 9
    Frame rate mode : Constant
    Frame rate : 24.000 FPS
    Color space : YUV
    Chroma subsampling : 4: 2: 0
    Bit depth : 8 bits
    Scan type : Progressive
    Bits/(Pixel*Frame) : 0.094
    Stream size : 112 MiB (60%)
    Writing library : x264 core 144 r2525 40bb568
    Language : English
    Default : Yes
    Forced : No
    Color range : Limited
    Color primaries : BT.709
    Transfer characteristics : BT.709
    Matrix coefficients : BT.709
    Audio #1
    ID : 2
    Format : AC-3
    Format/Info : Audio Coding 3
    Commercial name : Dolby Digital
    Codec ID : A_AC3
    Duration : 3 min 20 s
    Bit rate mode : Constant
    Bit rate : 640 kb/s
    Channel(s) : 2 channels
    Channel layout : L R
    Sampling rate : 48.0 kHz
    Frame rate : 31.250 FPS (1536 SPF)
    Bit depth : 16 bits
    Compression mode : Lossy
    Delay relative to video : 180 ms
    Stream size : 15.3 MiB (8%)
    Language : English
    Service kind : Complete Main
    Default : Yes
    Forced : No
    Audio #2
    ID : 3
    Format : AAC LC
    Format/Info : Advanced Audio Codec Low Complexity
    Codec ID : A_AAC-2
    Duration : 3 min 20 s
    Bit rate : 325 kb/s
    Channel(s) : 2 channels
    Channel layout : L R
    Sampling rate : 48.0 kHz
    Frame rate : 46.875 FPS (1024 SPF)
    Compression mode : Lossy
    Delay relative to video : 135 ms
    Stream size : 7.76 MiB (4%)
    Language : English
    Default : No
    Forced : No
    Audio #3
    ID : 4
    Format : MPEG Audio
    Format version : Version 1
    Format profile : Layer 3
    Format settings : Joint stereo
    Codec ID : A_MPEG/L3
    Codec ID/Hint : MP3
    Duration : 3 min 20 s
    Bit rate mode : Constant
    Bit rate : 320 kb/s
    Channel(s) : 2 channels
    Sampling rate : 44.1 kHz
    Frame rate : 38.281 FPS (1152 SPF)
    Compression mode : Lossy
    Delay relative to video : 135 ms
    Stream size : 7.64 MiB (4%)
    Writing library : LAME3.99r
    Encoding settings : -m j -V 4 -q 3 -lowpass 20.5
    Language : English
    Default : No
    Forced : No
    Audio #4
    ID : 5
    Format : FLAC
    Format/Info : Free Lossless Audio Codec
    Codec ID : A_FLAC
    Duration : 3 min 20 s
    Bit rate mode : Variable
    Bit rate : 780 kb/s
    Channel(s) : 2 channels
    Channel layout : L R
    Sampling rate : 44.1 kHz
    Frame rate : 10.768 FPS (4095 SPF)
    Bit depth : 16 bits
    Compression mode : Lossless
    Delay relative to video : 400 ms
    Stream size : 18.6 MiB (10%)
    Writing library : libFLAC 1.2.1 (UTC 2007-09-17)
    Language : English
    Default : No
    Forced : No
    Audio #5
    ID : 6
    Format : Vorbis
    Format settings, Floor : 1
    Codec ID : A_VORBIS
    Duration : 3 min 20 s
    Bit rate mode : Variable
    Bit rate : 500 kb/s
    Channel(s) : 2 channels
    Sampling rate : 44.1 kHz
    Frame rate : 67.660 FPS (652 SPF)
    Compression mode : Lossy
    Delay relative to video : 135 ms
    Stream size : 11.7 MiB (6%)
    Writing library : libVorbis 1.2 (UTC 2007-06-22)
    Language : English
    Default : No
    Forced : No
    Audio #6
    ID : 7
    Format : Opus
    Codec ID : A_OPUS
    Duration : 3 min 20 s
    Bit rate : 494 kb/s
    Channel(s) : 2 channels
    Channel layout : L R
    Sampling rate : 48.0 kHz
    Frame rate : 50.003 FPS (960 SPF)
    Compression mode : Lossy
    Delay relative to video : 400 ms
    Stream size : 11.8 MiB (6%)
    Language : English
    Default : No
    Forced : No

    За основу было взято аудио FLAC 780 Кбит/с (он так же присутствует как Audio #4), который, в последствии был конвертирован в остальные кодеки различными видео/аудио/и онлайн конвертерами... После чего один кодек сравнивался на наилучший показатель качества из разных конверторов, самый лучший по качеству (и слышимости) отбирался в коллекцию... FLAC аудио с моей стороны не конвертировалось - он является оригиналом с FLAC альбома: Billie Eilish - dont smile at me (2017)...

    Скриншоты для ознакомления



    Все одноименные релизы в Клубе
    Время раздачи: Ненормированное 24/7

    Онлайн видео Billie Eilish feat. Khalid - Lovely (2018) WEBRip [H.264



    Billie Eilish feat. Khalid - Lovely (2018) WEBRip [H.264 / 1080p-LQ] торрент скачать бесплатно
    Рейтинг →
     (голосов: 1, оценка 3/5, голосовать можно 1 раз )

    Другие торренты по теме:

  • Billie Eilish - When We All Fall Asleep, Where Do We Go (2019) [FLAC|Lossless|tracks + .cue] <Pop, Alternative, Electronic>
  • Billie Eilish - When We All Fall Asleep, Where Do We Go (2019) Japanese Edition [FLAC|Lossless|tracks + .cue] <Indie Pop>


    • Комментарии (0):

      Информация

      Информация

        Посетители, находящиеся в группе Гости, не могут оставлять комментарии в данной новости.

        ↓ Меню




        ↓ Опрос

        Вы добавили сайт в закладки?
        Да
        Нет


        Популярное