.
Авторизация | Регистрация
bitok.xyz
Торрент скачать бесплатно Фильмы торрент скачать Горячая точка (2019) WEB-DL [H.264 / 1080p] (сезон 1, серии 1-2 из 24) (обновляемая) торрент скачать бесплатно


    Горячая точка (2019) WEB-DL [H.264 / 1080p] (сезон 1, серии 1-2 из 24) (обновляемая) торрент скачать бесплатно

    Дата: 28-01-2020, 05:00 | .torrent скачали: 1

    Горячая точка (2019) WEB-DL [H.264 / 1080p] (сезон 1, серии 1-2 из 24) (обновляемая)Производство: Россия | Киностудия КИТ
    Жанр: детектив, драма
    Режиссер: Денис Карро

    Актеры
    Арсений Робак, Александр Носик, Ирина Савицкова, Елена Лотова, Назир Жуков, Павел Попов, Ирина Лукина, Олег Каменщиков, Иван Моховиков, Сергей Шарифуллин и др.

    Описание

    2001 год. Евгений возвращается в родной городок, после 7-летней службы по контракту. По приезду парень обнаруживает, что его бывшая девушка стала наркоманкой, как и большинство местной молодёжи. А мать с отчимом, ветераном афгана, ведут отчаянную борьбу за лесопилку, которую стремятся захватить бандиты. Пытаясь решить проблемы семьи, Женя переходит дорогу очень опасным людям и понимает, что недостаточно будет защищать только своих, со злом нужно бороться в масштабах города. В этой борьбе ему помогают его друзья — следователь местного отделения милиции Эдик и простой работяга Руслан. Им придется столкнуться не только с бандитами, но и с местной властью, которая находится в сговоре с криминальными авторитетами.

    Дата российской премьеры: 27 января 2020
    Продолжительность: ~00: 50: 00 серия
    Качество видео: WEB-DL
    Видео: AVC/H.264, 1920x1080 (16: 9), ~5961 kbps
    Аудио: AC3, 2 ch, 192 Kbps
    General
    Unique ID : 99672591584800710329764181188566920340 (0x4AFC3E2D2C4733FA81615929AFD52C94)
    Complete name : D: Горячая_точка_S01_2019_WEB-DL_1080pГорячая_точка_S01_2019_WEB-DL_1080p_01.mkv
    Format : Matroska
    Format version : Version 4
    File size : 2.11 GiB
    Duration : 50 min 37 s
    Overall bit rate : 5 962 kb/s
    Encoded date : UTC 2020-01-27 23: 05: 04
    Writing application : mkvmerge v43.0.0 (\'The Quartermaster\') 64-bit
    Writing library : libebml v1.3.10 + libmatroska v1.5.2
    Video
    ID : 1
    Format : AVC
    Format/Info : Advanced Video Codec
    Format profile : High@L4.1
    Format settings : CABAC/4 Ref Frames
    Format settings, CABAC : Yes
    Format settings, ReFrames : 4 frames
    Codec ID : V_MPEG4/ISO/AVC
    Duration : 50 min 37 s
    Bit rate : 5 961 kb/s
    Width : 1 920 pixels
    Height : 1 080 pixels
    Display aspect ratio : 16: 9
    Frame rate mode : Constant
    Frame rate : 25.000 FPS
    Color space : YUV
    Chroma subsampling : 4: 2: 0
    Bit depth : 8 bits
    Scan type : Progressive
    Bits/(Pixel*Frame) : 0.115
    Stream size : 2.11 GiB (100%)
    Language : English
    Default : Yes
    Forced : No
    Color range : Limited
    Color primaries : BT.709
    Transfer characteristics : BT.709
    Matrix coefficients : BT.709
    Audio
    ID : 2
    Format : AC-3
    Format/Info : Audio Coding 3
    Commercial name : Dolby Digital
    Codec ID : A_AC3
    Duration : 50 min 37 s
    Bit rate mode : Constant
    Bit rate : 192 kb/s
    Channel(s) : 2 channels
    Channel layout : L R
    Sampling rate : 48.0 kHz
    Frame rate : 31.250 FPS (1536 SPF)
    Bit depth : 16 bits
    Compression mode : Lossy
    Stream size : 69.5 MiB (3%)
    Language : Russian
    Service kind : Complete Main
    Default : Yes
    Forced : No

    Скриншоты для ознакомления



    Все одноименные релизы в Клубе
    Время раздачи: 24/7 (до появления первых 3-5 скачавших)

    Онлайн видео Горячая точка (2019) WEB-DL [H.264



    Горячая точка (2019) WEB-DL [H.264 / 1080p] (сезон 1, серии 1-2 из 24) (обновляемая) торрент скачать бесплатно
    Рейтинг →
     (голосов: 1, оценка 3/5, голосовать можно 1 раз )

    Другие торренты по теме:

  • Горячая точка (2015) SATRip скачать через торрент бесплатно
  • Горячая точка / Dou fo sin (2007) BDRip [H.264 / 720p]
  • Горячая точка (2019) SATRip [H.264] (сезон 1, серии 1-2 из 24) (обновляемая)
  • Горячая точка (2019) WEB-DLRip [H.264] (сезон 1, серии 1-24 из 24)
  • Горячая точка (2019) WEBRip (сезон 1, серии 1-24 из 24)


    • Комментарии (0):

      Информация

      Информация

        Посетители, находящиеся в группе Гости, не могут оставлять комментарии в данной новости.

        ↓ Меню




        ↓ Опрос

        Вы добавили сайт в закладки?
        Да
        Нет


        Популярное