.
Авторизация | Регистрация
bitok.xyz
Торрент скачать бесплатно Фильмы торрент скачать Нянька на рождество / Kalte FuBe / Cold Feet (2018) BDRip [H.264 / 720p-LQ] [PR] торрент скачать бесплатно


    Нянька на рождество / Kalte FuBe / Cold Feet (2018) BDRip [H.264 / 720p-LQ] [PR] торрент скачать бесплатно

    Дата: 29-01-2020, 05:00 | .torrent скачали: 1

    Нянька на рождество / Kalte FuBe / Cold Feet (2018) BDRip [H.264 / 720p-LQ] [PR]Производство: Германия, Австрия, Claussen + Putz Filmproduktion, Deutsche Columbia Pictures Film Produktion, Lotus Film
    Жанр: Комедия
    Режиссер: Вольфганг Гроос
    Продюсер: Якоб Клауссен, Томас Придниг, Ульрика Пуц,

    Актеры
    Эмилио Сакрайя, Соня Герхардт, Хайнер Лаутербах, Алекс Червинский, Герти Драссль, Жасмин Герат, Джинн Гурсо, Adam Halajczyk, Александр Йованович, Михаэль Островский

    Описание

    По нелепой случайности воришка Денис оказывается в роли сиделки у прикованного к инвалидному креслу. Он вынужден ухаживать за богатым бизнесменом и его внучкой, которая приехала навестить деда. Рэймонд с радостью избавился бы от непрошенного гостя, но снежная буря вынуждает их оставаться в одном доме.
    Начинается игра, в которой старик и молодой человек применяют свои способности с ужасающей изобретательностью…

    Возраст: 12+ (зрителям, достигшим 12 лет)
    Дата мировой премьеры: 21 ноября 2018
    Дата российской премьеры: 20 декабря 2019, Русский Репортаж
    Релиз от: ELEKTRI4KA
    Продолжительность: 01: 33: 06
    Качество видео: BDRip
    Перевод: Многоголосый профессиональный (iTunes)
    Субтитры: Немецкие (.pgs)
    Видео: AVC/H.264, 1280x536, ~2832 kbps
    Аудио 1: AC3, 2 ch, 192 kbps | Русский
    Аудио 2: DTS, 6 ch, 1509 kbps | Немецкий
    Общее
    Уникальный идентификатор : 250927510265946321902554830834421249926 (0xBCC6E16E4ABF9E6E8953C67AD714B786)
    Полное имя : C: Новая папка (2)Nyanka.na.rozhdestvo.2018.BDRip.720p.ELEKTRI4KA.UNIONGANG.mkv
    Формат : Matroska
    Версия формата : Version 4
    Размер файла : 2, 96 Гбайт
    Продолжительность : 1 ч. 33 м.
    Общий поток : 4548 Кбит/сек
    Дата кодирования : UTC 2020-01-26 22: 04: 13
    Программа кодирования : mkvmerge v8.3.0 (\'Over the Horizon\') 64bit
    Библиотека кодирования : libebml v1.3.1 + libmatroska v1.4.2
    Видео
    Идентификатор : 1
    Формат : AVC
    Формат/Информация : Advanced Video Codec
    Профиль формата : High@L4.1
    Настройки формата : CABAC/5 Ref Frames
    Параметр CABAC формата : Да
    Параметр RefFrames формата : 5 кадров
    Идентификатор кодека : V_MPEG4/ISO/AVC
    Продолжительность : 1 ч. 33 м.
    Битрейт : 2832 Кбит/сек
    Ширина : 1280 пикселей
    Высота : 536 пикселей
    Соотношение сторон : 2, 40: 1
    Режим частоты кадров : Постоянный
    Частота кадров : 25, 000 кадров/сек
    Цветовое пространство : YUV
    Субдискретизация насыщенности : 4: 2: 0
    Битовая глубина : 8 бит
    Тип развёртки : Прогрессивная
    Бит/(Пиксели*Кадры) : 0.165
    Размер потока : 1, 84 Гбайт (62%)
    Библиотека кодирования : x264 core 157 r2935 545de2f
    Настройки программы : cabac=1/ref=5/deblock=1: -1: -1/analyse=0x3: 0x113/me=umh/subme=8/psy=1/psy_rd=0.99: 0.01/mixed_ref=1/me_range=16/chroma_me=1/trellis=1/8x8dct=1/cqm=0/deadzone=21, 11/fast_pskip=0/chroma_qp_offset=-3/threads=12/lookahead_threads=2/sliced_threads=0/nr=0/decimate=1/interlaced=0/bluray_compat=0/constrained_intra=0/bframes=3/b_pyramid=2/b_adapt=2/b_bias=0/direct=3/weightb=1/open_gop=0/weightp=2/keyint=250/keyint_min=25/scenecut=40/intra_refresh=0/rc_lookahead=40/rc=crf/mbtree=1/crf=17.0/qcomp=0.60/qpmin=0/qpmax=69/qpstep=4/vbv_maxrate=62500/vbv_bufsize=78125/crf_max=0.0/nal_hrd=none/filler=0/ip_ratio=1.40/aq=1: 1.00
    Default : Да
    Forced : Нет
    Аудио #1
    Идентификатор : 2
    Формат : AC-3
    Формат/Информация : Audio Coding 3
    Коммерческое название : Dolby Digital
    Идентификатор кодека : A_AC3
    Продолжительность : 1 ч. 33 м.
    Вид битрейта : Постоянный
    Битрейт : 192 Кбит/сек
    Каналы : 2 канала
    ChannelLayout : L R
    Частота : 48, 0 КГц
    Частота кадров : 31, 250 кадров/сек (1536 SPF)
    Битовая глубина : 16 бит
    Метод сжатия : С потерями
    Размер потока : 128 Мбайт (4%)
    Заголовок : iTunes (ELEKTRI4KA.UNIONGANG)
    Язык : Russian
    ServiceKind/String : Complete Main
    Default : Нет
    Forced : Нет
    Аудио #2
    Идентификатор : 3
    Формат : DTS
    Формат/Информация : Digital Theater Systems
    Идентификатор кодека : A_DTS
    Продолжительность : 1 ч. 33 м.
    Вид битрейта : Постоянный
    Битрейт : 1509 Кбит/сек
    Каналы : 6 каналов
    ChannelLayout : C L R Ls Rs LFE
    Частота : 48, 0 КГц
    Частота кадров : 93, 750 кадра/сек (512 SPF)
    Битовая глубина : 24 бит
    Метод сжатия : С потерями
    Размер потока : 1005 Мбайт (33%)
    Язык : German
    Default : Да
    Forced : Нет
    Текст
    Идентификатор : 4
    Формат : PGS
    Режим смешивания : zlib
    Идентификатор кодека : S_HDMV/PGS
    Идентификатор кодека/Информация : Picture based subtitle format used on BDs/HD-DVDs
    Продолжительность : 1 ч. 32 м.
    Битрейт : 12, 5 Кбит/сек
    ElementCount : 2638
    Размер потока : 8, 23 Мбайт (0%)
    Заголовок : complete
    Язык : German
    Default : Нет
    Forced : Нет
    Меню
    00: 00: 00.000 : en: Chapter 01
    00: 07: 27.720 : en: Chapter 02
    00: 14: 19.520 : en: Chapter 03
    00: 19: 26.040 : en: Chapter 04
    00: 23: 56.120 : en: Chapter 05
    00: 27: 57.600 : en: Chapter 06
    00: 32: 20.160 : en: Chapter 07
    00: 38: 13.920 : en: Chapter 08
    00: 44: 58.120 : en: Chapter 09
    00: 55: 45.480 : en: Chapter 10
    01: 01: 13.360 : en: Chapter 11
    01: 06: 16.080 : en: Chapter 12
    01: 13: 34.360 : en: Chapter 13
    01: 18: 37.280 : en: Chapter 14
    01: 23: 24.840 : en: Chapter 15
    01: 28: 08.400 : en: Chapter 16

    Скриншоты для ознакомления



    Все одноименные релизы в Клубе
    Время раздачи: 24/7 (круглосуточно) (до появления первых 3-5 скачавших)

    Онлайн видео Нянька на рождество



    Нянька на рождество / Kalte FuBe / Cold Feet (2018) BDRip [H.264 / 720p-LQ] [PR] торрент скачать бесплатно
    Рейтинг →
     (голосов: 1, оценка 5/5, голосовать можно 1 раз )

    Другие торренты по теме:

  • Нянька на рождество / Kalte FuBe / Cold Feet (2018) BDRip [H.264 / 1080p-LQ] [PR]
  • Нянька на рождество / Kalte FuBe / Cold Feet (2018) HDRip [H.265] [10-bit]


    • Комментарии (0):

      Информация

      Информация

        Посетители, находящиеся в группе Гости, не могут оставлять комментарии в данной новости.

        ↓ Меню




        ↓ Опрос

        Вы добавили сайт в закладки?
        Да
        Нет


        Популярное