.
Авторизация | Регистрация
bitok.xyz
Торрент скачать бесплатно Фильмы торрент скачать Маяк / The Lighthouse (2019) BDRip [H.264 / 720p-LQ] [10 bit] [MVO] торрент скачать бесплатно


    Маяк / The Lighthouse (2019) BDRip [H.264 / 720p-LQ] [10 bit] [MVO] торрент скачать бесплатно

    Дата: 29-01-2020, 05:00 | .torrent скачали: 0

    Маяк / The Lighthouse (2019) BDRip [H.264 / 720p-LQ] [10 bit] [MVO]Производство: Канада, США/A24, New Regency Pictures, RT Features
    Жанр: Ужасы, Фэнтези, Драма
    Режиссер: Роберт Эггерс

    Актеры
    Уиллем Дефо, Роберт Паттинсон, Валерия КарамУиллем Дефо, Роберт Паттинсон, Валерия Караман, Logan Hawkes, Кайла Николль, Shaun Clarke, Pierre Richardан, Logan Hawkes, Кайла Николль, Shaun Clarke, Pierre Richard

    Описание

    1890-е годы, где-то неподалёку от побережья Новой Англии. Молодой человек Эфраим Уинслоу приезжает на отдалённый остров работать новым помощником смотрителя маяка, хромоногого и бородатого любителя выпить Томаса Уэйка. Тот обращается с подчинённым как с личным рабом и запрещает ему подниматься на сам маяк и управлять светом. Эфраима не отпускает собственное прошлое, так поначалу отказывавшийся от алкоголя парень всё чаще прикладывается к бутылке, и вскоре на каменистом острове — то ли ему мерещится, то ли в самом деле — начинает происходить всякая чертовщина.

    Возраст: 18+ (зрителям, достигшим 18 лет. запрещено для детей)
    Рейтинг MPAA: R (лицам до 17 лет обязательно присутствие взрослого)
    Дата мировой премьеры: 19 мая 2019
    Дата российской премьеры: 16 января 2020, UPI
    Продолжительность: 01: 49: 09
    Качество видео: BDRip
    Перевод: Многоголосый профессиональный, Одноголосый авторский
    Субтитры: Русские, Английские
    Видео: AVC/H.264, 864x720, ~2000 Kbps
    Аудио #1: AC3, 6 ch, 448 Kbps - Русский (MVO-HDRezka Studio)
    Аудио #2: AC3, 6 ch, 224 Kbps - Русский (AVO-Юрий Сербин)
    Аудио #3: AC3, 6 ch, 224 Kbps - Русский (AVO-Михаил Яроцкий)-ненормативная лексика
    Аудио #4: AC3, 6 ch, 448 Kbps - Английский
    General
    Unique ID : 22935873365974454819086035895990567861 (0x114149DD35516C176B4D5E85F51F43B5)
    Complete name : /media/win/TORRENT/UPLOAD_TORRENTS/MA.R.K_2019_BDRip_H264_H10_720p.mkv
    Format : Matroska
    Format version : Version 4
    File size : 2.55 GiB
    Duration : 1 h 49 min
    Overall bit rate : 3 345 kb/s
    Movie name : MA.R.K_2019_BDRip_H264_H10_720p
    Encoded date : UTC 2020-01-28 14: 15: 24
    Writing application : mkvmerge v42.0.0 (\'Overtime\') 64-bit
    Writing library : libebml v1.3.10 + libmatroska v1.5.2/Lavf58.29.100
    Video
    ID : 1
    Format : AVC
    Format/Info : Advanced Video Codec
    Format profile : High 10@L4
    Format settings : CABAC/6 Ref Frames
    Format settings, CABAC : Yes
    Format settings, Reference frames : 6 frames
    Codec ID : V_MPEG4/ISO/AVC
    Duration : 1 h 49 min
    Bit rate : 2 000 kb/s
    Width : 864 pixels
    Height : 720 pixels
    Display aspect ratio : 1.200
    Frame rate mode : Constant
    Frame rate : 23.976 FPS
    Color space : YUV
    Chroma subsampling : 4: 2: 0
    Bit depth : 10 bits
    Scan type : Progressive
    Bits/(Pixel*Frame) : 0.134
    Stream size : 1.52 GiB (60%)
    Writing library : x264 core 159 r2991 1771b55
    Encoding settings : cabac=1/ref=6/deblock=1: 0: 0/analyse=0x3: 0x113/me=umh/subme=9/psy=1/psy_rd=1, 00: 0, 00/mixed_ref=1/me_range=24/chroma_me=1/trellis=1/8x8dct=1/cqm=0/deadzone=21, 11/fast_pskip=1/chroma_qp_offset=-2/threads=22/lookahead_threads=2/sliced_threads=0/nr=0/decimate=1/interlaced=0/bluray_compat=0/constrained_intra=0/bframes=6/b_pyramid=2/b_adapt=2/b_bias=0/direct=1/weightb=1/open_gop=0/weightp=2/keyint=240/keyint_min=24/scenecut=40/intra_refresh=0/rc_lookahead=40/rc=2pass/mbtree=1/bitrate=2000/ratetol=1, 0/qcomp=0, 60/qpmin=0/qpmax=81/qpstep=4/cplxblur=20, 0/qblur=0, 5/vbv_maxrate=60000/vbv_bufsize=75000/nal_hrd=none/filler=0/ip_ratio=1, 40/aq=1: 1, 00
    Default : Yes
    Forced : No
    Color range : Limited
    Color primaries : BT.709
    Transfer characteristics : BT.709
    Matrix coefficients : BT.709
    Audio #1
    ID : 2
    Format : AC-3
    Format/Info : Audio Coding 3
    Commercial name : Dolby Digital
    Codec ID : A_AC3
    Duration : 1 h 49 min
    Bit rate mode : Constant
    Bit rate : 448 kb/s
    Channel(s) : 6 channels
    Channel layout : L R C LFE Ls Rs
    Sampling rate : 48.0 kHz
    Frame rate : 31.250 FPS (1536 SPF)
    Compression mode : Lossy
    Stream size : 350 MiB (13%)
    Title : MVO | HDRezka Studio
    Language : Russian
    Service kind : Complete Main
    Default : Yes
    Forced : No
    Audio #2
    ID : 3
    Format : AC-3
    Format/Info : Audio Coding 3
    Commercial name : Dolby Digital
    Codec ID : A_AC3
    Duration : 1 h 49 min
    Bit rate mode : Constant
    Bit rate : 224 kb/s
    Channel(s) : 6 channels
    Channel layout : L R C LFE Ls Rs
    Sampling rate : 48.0 kHz
    Frame rate : 31.250 FPS (1536 SPF)
    Compression mode : Lossy
    Delay relative to video : -5 ms
    Stream size : 175 MiB (7%)
    Title : AVO | Яроцкий
    Language : Russian
    Service kind : Complete Main
    Default : No
    Forced : No
    Audio #3
    ID : 4
    Format : AC-3
    Format/Info : Audio Coding 3
    Commercial name : Dolby Digital
    Codec ID : A_AC3
    Duration : 1 h 49 min
    Bit rate mode : Constant
    Bit rate : 224 kb/s
    Channel(s) : 6 channels
    Channel layout : L R C LFE Ls Rs
    Sampling rate : 48.0 kHz
    Frame rate : 31.250 FPS (1536 SPF)
    Compression mode : Lossy
    Delay relative to video : -5 ms
    Stream size : 175 MiB (7%)
    Title : AVO | Сербин
    Language : Russian
    Service kind : Complete Main
    Default : No
    Forced : No
    Audio #4
    ID : 5
    Format : AC-3
    Format/Info : Audio Coding 3
    Commercial name : Dolby Digital
    Codec ID : A_AC3
    Duration : 1 h 49 min
    Bit rate mode : Constant
    Bit rate : 448 kb/s
    Channel(s) : 6 channels
    Channel layout : L R C LFE Ls Rs
    Sampling rate : 48.0 kHz
    Frame rate : 31.250 FPS (1536 SPF)
    Compression mode : Lossy
    Delay relative to video : -5 ms
    Stream size : 350 MiB (13%)
    Title : Surround
    Language : English
    Service kind : Complete Main
    Default : No
    Forced : No
    Text #1
    ID : 6
    Format : UTF-8
    Codec ID : S_TEXT/UTF8
    Codec ID/Info : UTF-8 Plain Text
    Duration : 1 h 36 min
    Bit rate : 33 b/s
    Count of elements : 763
    Stream size : 23.6 KiB (0%)
    Language : English
    Default : Yes
    Forced : No
    Text #2
    ID : 7
    Format : UTF-8
    Codec ID : S_TEXT/UTF8
    Codec ID/Info : UTF-8 Plain Text
    Duration : 1 h 43 min
    Bit rate : 52 b/s
    Count of elements : 833
    Stream size : 40.0 KiB (0%)
    Language : Russian
    Default : No
    Forced : No
    Menu
    00: 00: 00.000 : : Chapter 1
    00: 06: 49.534 : : Chapter 2
    00: 11: 47.957 : : Chapter 3
    00: 13: 45.116 : : Chapter 4
    00: 19: 52.900 : : Chapter 5
    00: 25: 33.949 : : Chapter 6
    00: 29: 54.793 : : Chapter 7
    00: 36: 23.181 : : Chapter 8
    00: 41: 28.655 : : Chapter 9
    00: 51: 00.313 : : Chapter 10
    00: 55: 48.323 : : Chapter 11
    01: 03: 43.881 : : Chapter 12
    01: 09: 40.863 : : Chapter 13
    01: 19: 01.882 : : Chapter 14
    01: 24: 46.726 : : Chapter 15
    01: 39: 42.625 : : Chapter 16


    Онлайн видео Маяк



    Маяк / The Lighthouse (2019) BDRip [H.264 / 720p-LQ] [10 bit] [MVO] торрент скачать бесплатно
    Рейтинг →
     (голосов: 1, оценка 4/5, голосовать можно 1 раз )

    Другие торренты по теме:

  • Маяк / The Lighthouse (2019) CAMRip [H.264 / 720p-LQ] [MVO] [AD]
  • Маяк / The Lighthouse (2019) WEB-DLRip [MVO] [AD]
  • Маяк / The Lighthouse (2019) WEB-DLRip [H.264 / 1080p-LQ] [MVO] [AD]
  • Маяк / The Lighthouse (2019) WEB-DL [H.264 / 1080p] [MVO]
  • Маяк / The Lighthouse (2019) WEBRip [H.264 / 720p] [MVO] [PR]
  • Маяк / The Lighthouse (2019) WEB-DL [1080p] ATV
  • Маяк / The Lighthouse (2019) BDRip [MVO]
  • Маяк / The Lighthouse (2019) BDRemux [H.264 / 1080p] [MVO]


    • Комментарии (0):

      Информация

      Информация

        Посетители, находящиеся в группе Гости, не могут оставлять комментарии в данной новости.

        ↓ Меню




        ↓ Опрос

        Вы добавили сайт в закладки?
        Да
        Нет


        Популярное